новый адрес пиратбит piratbit
Мега распродажа FORZA HORIZON 4 ULTIMATE+ВСЕ DLC+ОНЛАЙН всего за 499р. 349 руб. (супер цена). Внимание количество ограничено!!!

iTunes

1+1

iTunes

мы

iTunes

1

iTunes

Чернобыль

iTunes

Ральф против интернета

Лицензия

ПШазам

Лицензия

Игра престолов

Лицензия

30
pack

ВАЖНО

!!Акция!!

Alien_RageХит недели

RePack

Resident Evil 21

ИГРА 18+

pack

RePack

Metro:Exodus

!!Акция!!

Alien_Rage

RePack

fifa19

RePack

Assassins Creed: Odyssey

RePack

NEED FOR SPEED™ PAYBACK

3 сезон

9 сезон

Бесстыжие 9 сезон

Все сериалы

все сериалы на PB.wtf

RePack

FAR CRY 5
Ребята, катастрофически не хватает 1900р. для оплаты серверов за Октябрь (всвязи с блокировками трафик упал в 3 раза), 1-2р., выручайте.
  

Патагония: По следам Чарльза Дарвина в 3Д / Patagonia: In The Footsteps Of Charles Darwin 3D (Norbert Vander) [2012, Документальный, BDrip, 1080p] OverUnder / Вертикальная стереопара piratbit.org

Патагония: По следам Чарльза Дарвина в 3Д через торрент piratbit.org

Размер: 11.03 GB | Добавлен: 6 лет 5 мес. назад | Торрент скачан:117 раз
Скачать  

30-05-2013 06:49 Патагония: По следам Чарльза Дарвина в 3Д Скачать торрент  

Патагония: По следам Чарльза Дарвина / Patagonia: In The Footsteps Of Charles Darwin

Год выпуска: 2012
Страна: Германия
Студия: New KSM
Жанр: Документальный
Продолжительность: 00:52:30

Перевод: Одноголосый закадровый
Русские субтитры: нет
Режиссер на русском:Норберт Вандер
Режиссер на английском: Norbert Vander

Описание: Патагония — страна бесконечных просторов и нетронутой природы, куда попадают очень немногие. Следуя по маршруту путешествия выдающегося ученого 19 века Чарльза Дарвина, фильм показывает удивительный мир животных и захватывающие дух пейзажи. Полуостров Вальдес — это настоящий райский уголок на восточном побережье Патагонии, который находится под охраной ЮНЕСКО. Вы сможете встретиться с китами, посетить одну из последних колоний морских слонов и понаблюдать за несчетными колониями Магеллановых пингвинов. Вам предоставляется возможность насладиться зрелищем одного из красивейших ландшафтов на Земле.

Сэмпл: http://www.sendspace.com/file/3bdyzt

Качество: BDrip
Контейнер: MKV
Формат 3D: OverUnder / Вертикальная стереопара
Порядок ракурсов: левый ракурс первый
Видео кодек: x264
Аудио кодек: DTS
Видео: AVC / High@L5.0 / 23,976 fps / 1920х2160 / 27,3 Мбит/сек
Аудио: Русский / DTS / 48 KHz / 5.1 ch / 1510 Кбит/сек
Аудио 2: Английский / AC3 / 48 KHz / 5.1 ch / 640 Kbps

Релиз группы: ВНИМАНИЕ ! На встроенных ТВ-плейерах работать не будет!!!

Железные плееры на которых воспроизводятся полные стереопары:Popcorn C-200 , Dune HD Smart D1 , Dune HD DUO , Dune HD Smart H1 , Dune HD Smart B1 , Dune HD Max , Dune HD TV-303D , Dune HD Base 3D

Общее
Уникальный идентификатор : 204195879172565879778225922461762054096 (0x999EB221622F1200A611FDBA4263E7D0)
Полное имя : F:видеоPatagonia In The Footsteps Of Charles Darwin.Rip by SeRoGa00.mkv
Формат : Matroska
Версия формата : Version 2
Размер файла : 11,0 Гбайт
Продолжительность : 52 м.
Режим общего битрейта : Переменный
Общий поток : 30,1 Мбит/сек
Дата кодирования : UTC 2013-05-30 05:33:13
Программа кодирования : mkvmerge v3.4.0 ('Rapunzel') сборка от May 15 2010 09:38:20
Библиотека кодирования : libebml v0.8.0 + libmatroska v0.9.0

Видео
Идентификатор : 1
Формат : AVC
Формат/Информация : Advanced Video Codec
Профиль формата : High@L5.0
Параметр CABAC формата : Да
Параметр ReFrames формата : 4 кадра
Идентификатор кодека : V_MPEG4/ISO/AVC
Продолжительность : 52 м.
Битрейт : 27,3 Мбит/сек
Ширина : 1920 пикселей
Высота : 2160 пикселей
Соотношение сторон : 0,889
Частота кадров : 23,976 кадра/сек
Цветовое пространство : YUV
Субдискретизация насыщенности : 4:2:0
Битовая глубина : 8 бит
Тип развёртки : Прогрессивная
Бит/(Пиксели*Кадры) : 0.274
Размер потока : 10,00 Гбайт (91%)
Заголовок : Rip by SeRoGa00
Библиотека кодирования : x264 core 128 r2216kMod 198a7ea
Настройки программы : cabac=1 / ref=4 / deblock=1:-3:-3 / analyse=0x3:0x113 / me=umh / subme=9 / psy=1 / fade_compensate=0.00 / psy_rd=1.00:0.15 / mixed_ref=1 / me_range=16 / chroma_me=1 / trellis=2 / 8x8dct=1 / cqm=0 / deadzone=21,11 / fast_pskip=1 / chroma_qp_offset=-3 / threads=9 / lookahead_threads=1 / sliced_threads=0 / nr=0 / decimate=1 / interlaced=0 / bluray_compat=0 / constrained_intra=0 / bframes=6 / b_pyramid=2 / b_adapt=2 / b_bias=0 / direct=3 / weightb=1 / open_gop=0 / weightp=2 / keyint=250 / keyint_min=23 / scenecut=40 / intra_refresh=0 / rc_lookahead=60 / rc=crf / mbtree=1 / crf=18.0000 / qcomp=0.60 / qpmin=10 / qpmax=69 / qpstep=4 / vbv_maxrate=40000 / vbv_bufsize=40000 / crf_max=0.0 / nal_hrd=none / ip_ratio=1.40 / aq=1:1.00
Язык : English

Аудио #1
Идентификатор : 2
Формат : DTS
Формат/Информация : Digital Theater Systems
Профиль формата : MA / Core
Идентификатор кодека : A_DTS
Продолжительность : 52 м.
Вид битрейта : Переменный
Битрейт : 1561 Кбит/сек / 1510 Кбит/сек
Каналы : 6 каналов
Расположение каналов : Front: L C R, Side: L R, LFE
Частота : 48,0 КГц
Битовая глубина : 16 бит
Метод сжатия : Без потерь / Lossy
Язык : Russian

Аудио #2
Идентификатор : 3
Формат : AC-3
Формат/Информация : Audio Coding 3
Расширение режима : CM (complete main)
Идентификатор кодека : A_AC3
Продолжительность : 52 м.
Вид битрейта : Постоянный
Битрейт : 640 Кбит/сек
Каналы : 6 каналов
Расположение каналов : Front: L C R, Side: L R, LFE
Частота : 48,0 КГц
Битовая глубина : 16 бит
Метод сжатия : С потерями
Размер потока : 240 Мбайт (2%)
Язык : English
piratbit.org



Скачать Патагония: По следам Чарльза Дарвина в 3Д через торрент http://i48.fastpic.ru/big/2013/0530/65/1c50ed7d332c9ac89fb677fd4883fc65.png Скачать фильм Патагония: По следам Чарльза Дарвина в 3Д через торрент бесплантно в хорошем качестве Описание: Патагония — страна бесконечных просторов и нетронутой природы, куда попадают очень немногие. Следуя по маршруту путешествия ... 7.4 10 10
Info! Золотая раздача, скачанное не засчитывается.
Торрент: Зарегистрирован [2013-05-30 06:49] · скачан: 117 раз
Статус: √ проверено
Размер: 11.03 GB
Как cкачать? Как скачать Патагония: По следам Чарльза Дарвина в 3Д через торрент | qTorrent


>> Регистрируемся здесь <<






Отзывы и комментарии о схеме читаем и пишем здесь: ---> Отзывы и комментарии о схеме

Новые благодарочки в телеграм довольных пользователей:
скриншот   скриншот   скриншот   скриншот   скриншот
    Дорогой пользователь! Огромная просьба, поблагодарите релизера, оцените раздачу и оставьте свои комментарий, если Вы скачали Патагония: По следам Чарльза Дарвина в 3Д через торрент бесплатно! Внесите свою лепту в развитие PiratBit!
    Комментировать посты могут только пользователи прошедшие не сложную регистрацию
    Показать сообщения:    

    Патагония: По следам Чарльза Дарвина в 3Д через торрент
    Скачать бесплатно Патагония: По следам Чарльза Дарвина в 3Д
    Патагония: По следам Чарльза Дарвина в 3Д скачать торрент
    Патагония: По следам Чарльза Дарвина в 3Д смотреть онлайн
    Cкачать фильм Патагония: По следам Чарльза Дарвина в 3Д бесплатно
    Патагония: По следам Чарльза Дарвина в 3Д скачать торрент в хорошем качестве
    Патагония: По следам Чарльза Дарвина в 3Д смотреть онлайн бесплатно в хорошем качестве


    Вы не можете начинать темы
    Вы не можете отвечать на сообщения
    Вы не можете редактировать свои сообщения
    Вы не можете удалять свои сообщения
    Вы не можете голосовать в опросах
    Вы не можете прикреплять файлы к сообщениям
    Вы можете скачивать файлы