1 сезон

3 сезон

iTunes

1

iTunes

MVO

iTunes

13

1 сезон

RePack

30

Deluxe

pack

Лицензия

ВАЖНО

ИГРА 18+

pack

RePack

MK11

RePack

jed

RePack

fifa19

RePack

RDR2

RePack

NEED FOR SPEED™ PAYBACK

4 сезон

9 сезон

Бесстыжие 9 сезон

Все сериалы

все сериалы на PB.wtf

RePack

FAR CRY 5

Anonymous, добрый вечер, мы катастрофически не успеваем собрать деньги на оплату серверов, помогите нам пожалуйста 5,10,15р., для нас важна любая помощь . В качестве благодарности мы отключим Вам всю рекламу на сайте (укажите свой ник в строку Ваше имя)!

×
  
Magnet ссылка

Черный ястреб / Black Hawk Down (Ридли Скотт) [2001 г., драма, военный, история, HDRip, Дубляж] piratbit.org

Черный ястреб через торрент piratbit.org

Размер: 1.46 GB | Добавлен: 8 лет 1 мес. назад | Торрент скачан:35 раз
Скачать  

05-06-2013 15:25 Черный ястреб Скачать торрент  

Черный ястреб / Black Hawk Down

Год выпуска: 2001
Страна: США
Жанр: драма, военный, история
Продолжительность: 02:24:19
Перевод: Дубляж

Режиссер: Ридли Скотт
Продюссер: Джерри Брукхаймер, Ридли Скотт, Гарри Хемфрис
Сценарий: Кен Нолан, Марк Боуден

Бюджет: $92 000 000
Премьера в мире: 18 декабря 2001



В ролях: Джош Хартнетт /Josh Hartnett/, Эрик Бана /Eric Bana/, Эван МакГрегор /Ewan McGregor/, Том Сайзмор /Tom Sizemore/, Сэм Шепард /Sam Shepard/, Эвен Бремнер /Ewen Bremner

Описание: Сомали, 1993 год. Страна вымирает от голода, число жертв превысило триста тысяч человек. Миротворческие силы ООН пытаются восстановить порядок и организовать поставки продовольствия. В помощь им Вашингтон выслал полтысячи человек из элитных подразделений американской армии, знаменитые отряды «Дельта» и армейских рейнджеров.
В городе Магадишо хозяйничает и творит беспредел полевой командир Айдид, убивая мирных граждан и отбирая гуманитарную помощь. В определенный момент орлы из Вашингтона решают провести операцию по захвату Айдида в его резиденции.
Молодой офицер, только что назначенный взводным; матерый сержант, ведущий колонну машин; казарменный писарь, не нюхавший пороху; экипажи сбитых вертолетов, вынужденных ждать подкрепления и эвакуации; пара солдат, которых забыли взять с собой при смене позиции; генерал, сидящий в штабе и наблюдающий со спутника, как погибают его солдаты…

Качество: HDRip
Формат: AVI
Видео кодек: XviD
Аудио кодек: AC3
Видео: 720x304 (2.37:1), 23.976 fps, XviD build 47 ~1071 kbps avg, 0.20 bit/pixel
Аудио: 48 kHz, AC3 Dolby Digital, 3/2 (L,C,R,l,r) + LFE ch, ~448.00 kbps avg
[/URL]
[/URL]
[/URL]
[/URL]
[/URL]
Общее
Полное имя : J:Падение чёрного ястреба (театральная версия)
Формат : AVI
Формат/Информация : Audio Video Interleave
Размер файла : 1,46 Гбайт
Продолжительность : 2 ч. 24 м.
Общий поток : 1449 Кбит/сек
Программа кодирования : VirtualDubMod 1.5.10.2 (build 2540/release)
Библиотека кодирования : VirtualDubMod build 2540/release

Видео
Идентификатор : 0
Формат : MPEG-4 Visual
Профиль формата : Advanced Simple@L5
Параметр BVOP формата : 1
Параметр QPel формата : Нет
Параметр GMC формата : Без точки перехода
Параметр матрицы формата : Default (MPEG)
Идентификатор кодека : XVID
Идентификатор кодека/Подсказка : XviD
Продолжительность : 2 ч. 24 м.
Битрейт : 992 Кбит/сек
Ширина : 720 пикселей
Высота : 304 пикселя
Соотношение сторон : 2,35:1
Частота кадров : 23,976 кадра/сек
Цветовое пространство : YUV
Субдискретизация насыщенности : 4:2:0
Битовая глубина : 8 бит
Тип развёртки : Прогрессивная
Метод сжатия : С потерями
Бит/(Пиксели*Кадры) : 0.189
Размер потока : 1024 Мбайт (68%)
Библиотека кодирования : XviD 1.2.0.dev47 (UTC 2006-11-01)

Аудио
Идентификатор : 1
Формат : AC-3
Формат/Информация : Audio Coding 3
Расширение режима : CM (complete main)
Параметр Endianness формата : Big
Идентификатор кодека : 2000
Продолжительность : 2 ч. 24 м.
Вид битрейта : Постоянный
Битрейт : 448 Кбит/сек
Каналы : 6 каналов
Расположение каналов : Front: L C R, Side: L R, LFE
Частота : 48,0 КГц
Битовая глубина : 16 бит
Метод сжатия : С потерями
Размер потока : 462 Мбайт (31%)
Выравнивание : Разделение по промежуткам
Продолжительность промежутка : 42 мс. (1,00 видеокадр)
Время предзагрузки промежутка : 500 мс.
piratbit.org



Скачать Черный ястреб через торрент http://i2.imageban.ru/out/2013/06/05/d97f8ee93f2ab0a8cfbde986c7bdf03b.jpg Скачать фильм Черный ястреб через торрент бесплантно в хорошем качестве Описание: Сомали, 1993 год. Страна вымирает от голода, число жертв превысило триста тысяч человек. Миротворческие силы ООН пытаются ... 9.5 10 19
Info! Золотая раздача, скачанное не засчитывается.
Торрент: Зарегистрирован [2013-06-05 15:25] · скачан: 35 раз
Статус: √ проверено
Размер: 1.46 GB
Как cкачать? Как скачать Черный ястреб через торрент | UTorrent

% Раздел Тема Автор DL S | L
Фильмы (HD 720p, 1080p) (48-60 fps) [ 8.64 GB ] Чёрный ястреб / Падение Чёрного ястреба / Black Hawk Down [2001 военный [Extended Cut] / JPN Transfer BDRip-HEVC 1080p 60fps MVO] Tiberiumsun69 Скачать
24 | 0
Ultra HD (UHD: 2K, 4K, 8K) — видео сверхвысокой чёткости [ 75.58 GB ] Черный ястреб / Падение Чёрного ястреба / Black Hawk Down [2001 военный история реальные события UHD BDRemux 2160p] MVO + DVO + 3xAVO [Расширенная версия] sheker187 Скачать
2 | 0
Ultra HD (UHD: 2K, 4K, 8K) — видео сверхвысокой чёткости [ 84.38 GB ] Черный ястреб / Падение Чёрного ястреба / Black Hawk Down [2001 военный история реальные события UHD Blu-ray EUR 2160p] [Театральная и расширенная версия] DUB [] sheker187 Скачать
1 | 0
Фильмы (HD 720p, 1080p) (48-60 fps) [ 15.84 GB ] Черный ястреб / Падение чёрного ястреба / Black Hawk Down [2001 военный BDRip 1080p / 60 FPS ] Tiberiumsun69 Скачать
1 | 0
Фильмы [HD 720p, 1080p] (Хороший звук DUB, MVO) [ 7.96 GB ] Черный ястреб / Падение Чёрного ястреба / Black Hawk Down [2001 военный BDRip 720p +MVOAVO _denis_100 Скачать
1 | 0
Фильмы [HD 720p, 1080p] (Хороший звук DUB, MVO) [ 19.02 GB ] Черный ястреб / Black Hawk Down [2001 военный история BDRip 1080p ] Артронах Скачать
1 | 0
Фильмы [HD 720p, 1080p] (Хороший звук DUB, MVO) [ 4.82 GB ] Черный ястреб / Падение черного ястреба / Black Hawk Down [2001 BDRip-AVC] [720p] Kristian Larsson Скачать
1 | 0

28-11-2019 20:33  

Отключить всю рекламу на сайте

13-06-2013 19:18 Черный ястреб Скачать торрент  

от души!!!!!!!!!!!!!!!!!!!!!!!!!!!!!!!piratbit.org



    Дорогой пользователь! Огромная просьба, поблагодарите релизера, оцените раздачу и оставьте свои комментарий, если Вы скачали Черный ястреб через торрент бесплатно! Внесите свою лепту в развитие PiratBit!
    Комментировать посты могут только пользователи прошедшие не сложную регистрацию
    Показать сообщения:    

    Черный ястреб через торрент
    Скачать бесплатно Черный ястреб
    Черный ястреб скачать торрент
    Черный ястреб смотреть онлайн
    Cкачать фильм Черный ястреб бесплатно
    Черный ястреб скачать торрент в хорошем качестве
    Черный ястреб смотреть онлайн бесплатно в хорошем качестве


    Вы не можете начинать темы
    Вы не можете отвечать на сообщения
    Вы не можете редактировать свои сообщения
    Вы не можете удалять свои сообщения
    Вы не можете голосовать в опросах
    Вы не можете прикреплять файлы к сообщениям
    Вы можете скачивать файлы