Архив 81

1 сезон

Добыча

Дубляж

Тед Лассо

3 сезон

Тор

1 сезон

13 клиническая

3 сезон

Жестокая ночь

Дубляж

Одни из нас

1s 9e

Premium

Premium

Deluxe

Deluxe

pack

Рекомендуем

30

Repack

ВАЖНО

ВАЖНО

Ghostwire

Пиратка

jed

RePack

nioh2

RePack

RDR2

RePack

NEED FOR SPEED™ PAYBACK

RePack

скачать торрент

Кинопоиск HD

Острые козырьки 6 сезон

6 сезон

FAR CRY 6

RePack

скачать торрент

Лицензия

скачать торрент

MVO

1

1 сезон

скачать торрент

1 сезон

скачать торрент

Лицензия

  

Охотники на ведьм в 3D / Hansel & Gretel: Witch Hunters in 3D (Томми Виркола) [2013 г., ужасы, фэнтези, боевик, BDRip 1080p, Дубляж, лицензия] Анаглиф (Дюбуа)

Охотники на ведьм в 3D через торрент piratbit.org

Размер: 5.25 GB | Добавлен: 9 лет 9 мес. назад | Торрент скачан:120 раз
Смотреть онлайн | Скачать | Поддержите нас   

06-06-2013 10:05 Охотники на ведьм в 3D Скачать торрент  

Охотники на ведьм в 3D / Hansel & Gretel: Witch Hunters in 3D
Год выпуска: 2013
Страна: США
Жанр:ужасы, фэнтези, боевик,
Продолжительность: 01:27:56
Перевод: Дубляж, Лицензия

Режиссер: Томми Виркола
Продюссер: Уилл Феррелл, Бо Флинн, Крис Хенчи
Сценарий: Томми Виркола

Бюджет: $50 000 000
Премьера в мире: 19 января 2013

IMDB 6.20 (36 825)



В ролях: Джереми Реннер, Джемма Артертон, Фамке Янссен, Пихла Виитала, Дерек Мирс, Робин Аткин Даунс, Ингрид Болсай Бердал, Джоэнна Кулиг, Томас Манн, Петер Стормаре,
Роли дублировали: Илья Исаев, Ирина Киреева, Ольга Плетнёва, Николай Быстров, Андрей Данилюк,

Описание: Едва не погибнув в лапах ужасной ведьмы, Гензель и Гретель стали только сильнее. Одержимые местью, они ведут отчаянную борьбу со злом, даже не подозревая, что их поджидает нечто куда более опасное... собственное прошлое...

Доп. информация: Формат 3D: Анаглиф (Дюбуа)



Качество: BDRip 1080p
Формат: MKV
Видео кодек: H.264
Аудио кодек: AC3
Видео: 1920 х 1072 / 23,976 fps, (16:9) / 8001 Kbps, (0.162 bit/pixel)
Аудио#1: Русский / AC3 / 48 KHz / 5.1 ch / 448 Kbps




Общее
Уникальный идентификатор : 176562925275388805225801274549531774043 (0x84D4C850FABA9081A42DEE02C46B0C5B)
Полное имя : E:Hansel&Gretel.WitchHunters.3D(Crop).(Anaglyph_Dubois).mkv
Формат : Matroska
Размер файла : 5,25 Гбайт
Продолжительность : 1 ч. 27 м.
Общий поток : 8547 Кбит/сек
Название фильма : Охотники на ведьм / Hansel&Gretel.WitchHunters.3D(Crop).(Anaglyph_Dubois)
Дата кодирования : UTC 2013-06-06 07:48:48
Программа кодирования : mkvmerge v4.4.0 ('Die Wiederkehr') сборка от Oct 31 2010 21:52:48
Библиотека кодирования : libebml v1.0.0 + libmatroska v1.0.0

Видео
Идентификатор : 1
Формат : AVC
Формат/Информация : Advanced Video Codec
Профиль формата : [email protected]
Параметр CABAC формата : Нет
Параметр ReFrames формата : 1 кадр
Режим смешивания : Header stripping
Идентификатор кодека : V_MPEG4/ISO/AVC
Продолжительность : 1 ч. 27 м.
Битрейт : 8001 Кбит/сек
Ширина : 1920 пикс.
Высота : 1072 пикс.
Соотношение сторон : 16:9
Частота кадров : 23,976 кадр/сек
Цветовое пространство : YUV
Подвыборка цветности : 4:2:0
Битовая глубина : 8 бит
Тип развёртки : Прогрессивная
Бит/(Пиксели*Кадры) : 0.162
Размер потока : 4,87 Гбайт (93%)
Библиотека кодирования : x264 core 120
Настройки программы : cabac=0 / ref=1 / deblock=0:0:0 / analyse=0:0 / me=dia / subme=0 / psy=1 / psy_rd=1.00:0.00 / mixed_ref=0 / me_range=16 / chroma_me=1 / trellis=0 / 8x8dct=0 / cqm=0 / deadzone=21,11 / fast_pskip=1 / chroma_qp_offset=0 / threads=3 / sliced_threads=0 / nr=0 / decimate=1 / interlaced=0 / bluray_compat=0 / constrained_intra=0 / bframes=0 / weightp=0 / keyint=240 / keyint_min=24 / scenecut=0 / intra_refresh=0 / rc=abr / mbtree=0 / bitrate=8001 / ratetol=1.0 / qcomp=0.60 / qpmin=3 / qpmax=69 / qpstep=4 / ip_ratio=1.40 / aq=0
Язык : English
Основные цвета : BT.709-5, BT.1361, IEC 61966-2-4, SMPTE RP177
Характеристики трансфера : BT.709-5, BT.1361
Коэффициенты матрицы : BT.709-5, BT.1361, IEC 61966-2-4 709, SMPTE RP177

Аудио
Идентификатор : 2
Формат : AC-3
Формат/Информация : Audio Coding 3
Расширение режима : CM (complete main)
Режим смешивания : Header stripping
Идентификатор кодека : A_AC3
Продолжительность : 1 ч. 27 м.
Вид битрейта : Постоянный
Битрейт : 448 Кбит/сек
Канал(ы) : 6 канала(ов)
Расположение каналов : Front: L C R, Side: L R, LFE
Частота : 48,0 КГц
Битовая глубина : 16 бит
Метод сжатия : С потерями
Размер потока : 282 Мбайт (5%)
Заголовок : Дубляж (AC3 Dolby Digital, 48 KHz, 448 kbps)
Язык : Russian



Скачать Охотники на ведьм в 3D через торрент http://i48.fastpic.ru/big/2013/0518/ab/1f89c808cfbcc4483770a29c30775dab.gif Скачать, смотреть онлайн Охотники на ведьм в 3D бесплантно в хорошем качестве Описание: Едва не погибнув в лапах ужасной ведьмы, Гензель и Гретель стали только сильнее. Одержимые местью, они ведут отчаянную борьбу со ... 7.9 10 9
Info! Золотая раздача, скачанное не засчитывается.
Торрент: Зарегистрирован [2013-06-06 10:05] · скачан: 120 раз
Статус: √ проверено
Размер: 5.25 GB
Как cкачать? Как скачать Охотники на ведьм в 3D через торрент | UTorrent

% Раздел Тема Автор DL S | L
3D Фильмы [ 5.47 GB ] Охотники на ведьм в 3D / Hansel & Gretel: Witch Hunters in 3D | Дубляж | 1080p, Дубляж, лицензия slaventi-69 Скачать
1 | 0
3D Фильмы [ 8.52 GB ] Охотники на ведьм в 3Д / Hansel & Gretel: Witch Hunters 3D | | 1080p diletant Скачать
1 | 0

28-11-2019 20:33  


Отключить вcю реклaмy на сайте, в т.ч. и в плеере онлайн просмотра!

    Дорогой пользователь! Огромная просьба, поблагодарите релизера, оцените раздачу и оставьте свои комментарий, если Вы скачали Охотники на ведьм в 3D через торрент бесплатно!!
    Комментировать посты могут только пользователи прошедшие не сложную регистрацию
    Показать сообщения:    


    Охотники на ведьм в 3D через торрент
    Скачать бесплатно Охотники на ведьм в 3D
    Охотники на ведьм в 3D скачать торрент
    Охотники на ведьм в 3D смотреть онлайн
    Cкачать фильм Охотники на ведьм в 3D бесплатно
    Охотники на ведьм в 3D скачать торрент в хорошем качестве
    Охотники на ведьм в 3D смотреть онлайн бесплатно в хорошем качестве
    Вы не можете начинать темы
    Вы не можете отвечать на сообщения
    Вы не можете редактировать свои сообщения
    Вы не можете удалять свои сообщения
    Вы не можете голосовать в опросах
    Вы не можете прикреплять файлы к сообщениям
    Вы можете скачивать файлы
    Охотники на ведьм в 3D / Hansel & Gretel: Witch Hunters in 3D [2013 г., ужасы, фэнтези, боевик, BDRip 1080p, Дубляж, лицензия] Анаглиф смотреть онлайн, скачать торрент picoco.icu