Ссылка на приватное зеркало нашего сайта всего за 1$. Внимание количество ограничено!!!

2 сезон

iTunes

iTunes

1

iTunes

iTunes

iTunes

WEBRip

iTunes

30
pack

Вам бонус

ВАЖНО

!!Акция!!

Alien_RageХит недели

RePack

Horizon Zero Dawn

ИГРА 18+

pack

RePack

jed

!!Акция!!

Alien_Rage

RePack

fifa19

RePack

Assassins Creed: Odyssey

RePack

NEED FOR SPEED™ PAYBACK

4 сезон

9 сезон

Бесстыжие 9 сезон

Все сериалы

все сериалы на PB.wtf

RePack

FAR CRY 5
  

Обман / The Lookout (Скотт Фрэнк) [2007 г., триллер, драма, криминал, HDRip, MVO, R5] piratbit.org

Обман через торрент piratbit.org

Размер: 1.46 GB | Добавлен: 7 лет 3 мес. назад | Торрент скачан:86 раз
Скачать  

18-06-2013 16:23 Обман Скачать торрент  

Обман / The Lookout Год выпуска: 2007
Страна: США
Производство: Laurence Mark Productions, Miramax Films
Жанр: триллер, драма, криминал
Продолжительность: 01:38:39
Перевод: Профессиональный многоголосый, R5
Субтитры: Not Present

Режиссер: Скотт Фрэнк
Продюссер: Гари Барбер, Роджер Бернбаум, Лоуренс Марк
Сценарий: Скотт Фрэнк
Бюджет: $16 000 000
Премьера в мире: 9 марта 2007



В ролях: Джозеф Гордон-Левитт, Джефф Дэниелс, Мэттью Гуд, Айла Фишер, Карла Гуджино, Брюс МакГилл, Альберта Уотсон, Алекс Борштейн, Серджо Ди Зио, Дэвид Хубанд,

Описание: Талантливый хоккеист Крис Пратт, подававший большие надежды, попадает в автомобильную катастрофу и теряет память. Став инвалидом, он зарабатывает на жизнь ночным уборщиком в банке. А в это время лидер преступной группировки Гарри Спарго планирует ограбление этого самого банка и вербует слабоумного уборщика себе в помощники...



Сэмпл / Трейлер

  • Качество: HDRip
  • Формат: AVI
  • Видео кодек: XviD
  • Аудио кодек: AC3
  • Видео: MPEG4, XviD, 720x304 (2.35:1), 23.976 fps, 1 664 Kbps (0.317 bit/pixel)
  • Аудио: AC-3, 48.0 KHz, 6 ch, 448 Kbps, CBR
    Формат : AVI
    Формат/Информация : Audio Video Interleave
    Размер файла : 1,46 Гбайт
    Продолжительность : 1 ч. 38 м.
    Общий поток : 2121 Кбит/сек
    Название фильма : The.Lookout.2007.HDRip.kep
    Жанр : Thriller, Drama, Crime
    Программа кодирования : VirtualDubMod 1.5.10.3 (build 2550/release)
    Формат оригинала/Имя : Movie
    Правообладатель : Rip prepared for piratbit.cc
    Примечание : Rip ot kep

    Видео
    Идентификатор : 0
    Формат : MPEG-4 Visual
    Профиль формата : Advanced Simple@L5
    Параметр BVOP формата : 2
    Параметр QPel формата : Нет
    Параметр GMC формата : Без точки перехода
    Параметр матрицы формата : Default (MPEG)
    Идентификатор кодека : XVID
    Идентификатор кодека/Подсказка : XviD
    Продолжительность : 1 ч. 38 м.
    Битрейт : 1664 Кбит/сек
    Ширина : 720 пикселей
    Высота : 304 пикселя
    Соотношение сторон : 2,35:1
    Частота кадров : 23,976 кадра/сек
    Цветовое пространство : YUV
    Субдискретизация насыщенности : 4:2:0
    Битовая глубина : 8 бит
    Тип развёртки : Прогрессивная
    Метод сжатия : С потерями
    Бит/(Пиксели*Кадры) : 0.317
    Размер потока : 1,15 Гбайт (78%)
    Библиотека кодирования : XviD 1.2.1 (UTC 2008-12-04)

    Аудио
    Идентификатор : 1
    Формат : AC-3
    Формат/Информация : Audio Coding 3
    Расширение режима : CM (complete main)
    Параметр Endianness формата : Big
    Идентификатор кодека : 2000
    Продолжительность : 1 ч. 38 м.
    Вид битрейта : Постоянный
    Битрейт : 448 Кбит/сек
    Каналы : 6 каналов
    Расположение каналов : Front: L C R, Side: L R, LFE
    Частота : 48,0 КГц
    Битовая глубина : 16 бит
    Метод сжатия : С потерями
    Размер потока : 316 Мбайт (21%)
    Выравнивание : Разделение по промежуткам
    Продолжительность промежутка : 42 мс. (1,00 видеокадр)
    Время предзагрузки промежутка : 500 мс.
    скриншот   скриншот   скриншот   скриншот   скриншот   piratbit.org



  • Скачать Обман через торрент http://i6.imageban.ru/out/2013/06/18/947d1c5c16362efa62ae1a07301c94aa.png Скачать фильм Обман через торрент бесплантно в хорошем качестве Описание: Талантливый хоккеист Крис Пратт, подававший большие надежды, попадает в автомобильную катастрофу и теряет память. Став инвалидом, ... 9.8 10 6
    Info! Золотая раздача, скачанное не засчитывается.
    Торрент: Зарегистрирован [2013-06-18 16:23] · скачан: 86 раз
    Статус: √ проверено
    Размер: 1.46 GB
    Как cкачать? Как скачать Обман через торрент | qTorrent

    28-11-2019 20:33  

    Отключить всю рекламу на сайте

      Дорогой пользователь! Огромная просьба, поблагодарите релизера, оцените раздачу и оставьте свои комментарий, если Вы скачали Обман через торрент бесплатно! Внесите свою лепту в развитие PiratBit!
      Комментировать посты могут только пользователи прошедшие не сложную регистрацию
      Показать сообщения:    

      Обман через торрент
      Скачать бесплатно Обман
      Обман скачать торрент
      Обман смотреть онлайн
      Cкачать фильм Обман бесплатно
      Обман скачать торрент в хорошем качестве
      Обман смотреть онлайн бесплатно в хорошем качестве


      Вы не можете начинать темы
      Вы не можете отвечать на сообщения
      Вы не можете редактировать свои сообщения
      Вы не можете удалять свои сообщения
      Вы не можете голосовать в опросах
      Вы не можете прикреплять файлы к сообщениям
      Вы можете скачивать файлы