Достать ножи: Стеклянная луковица

MVO

Добыча

Дубляж

Уэнсдэй

1 сезон

Тор

Дубляж

13 клиническая

1 сезон

Жестокая ночь

MVO

Одни из нас

1 сезон

Deluxe

pack

Рекомендуем

30

Пиратка

ВАЖНО

ВАЖНО

Ghostwire

Пиратка

jed

RePack

nioh2

RePack

RDR2

RePack

NEED FOR SPEED™ PAYBACK

RePack

скачать торрент

Кинопоиск HD

Острые козырьки 6 сезон

6 сезон

FAR CRY 6

RePack

скачать торрент

Лицензия

скачать торрент

MVO

1

1 сезон

скачать торрент

1 сезон

скачать торрент

Лицензия

  

Одним меньше / Dead Man Down (Нильс Арден Оплев / Niels Arden Oplev) [ 2013 , США , триллер, драма, криминал , BD Remux ] Дубляж

Одним меньше через торрент piratbit.org

Размер: 24.32 GB | Добавлен: 9 лет 7 мес. назад | Торрент скачан:176 раз
Смотреть онлайн | Скачать | Поддержите нас   

30-06-2013 14:27 Одним меньше Скачать торрент  

Одним меньше / Dead Man Down


  • Год выпуска:2013
  • Страна: США
  • Жанр:триллер, драма, криминал, боевик
  • Продолжительность: 01:57:47
  • Перевод:Профессиональный (полное дублирование)

  • Субтитры: Английский (full, SDH) [Вшитые отключаемые (*.pgs)]
    • Режиссер: Нильс Арден Оплев / Niels Arden Oplev
    • Продюсер: Дж. Х. Уаймен / J.H. Wyman, Нил Х. Мориц / Neal H. Moritz, Бэйли Конуэй / Bailey Conway, Стивен Сквилланте / Steven Squillante, Джозеф Золфо / Joseph Zolfo
    • Сценарий:Дж. Х. Уаймен / J.H. Wyman

  • В ролях:Колин Фаррелл (Victor), Нуми Рапас (Beatrice), Терренс Ховард (Alphonse), Доминик Купер (Darcy), Изабель Юппер (Valentine Louzon), Луис Да Силва мл. (Terry), Стью Беннетт (Kilroy), Фрэнки Джи (Luco), Деклан Мулвей (Goff), Джон Ченатьемпо (Charles), Лерой Уилсон мл. (Blotto), Майлс Хамфус (Lance)
    • Описание:
      История человека по имени Виктор, он правая рука лидера преступной группировки из Нью-Йорка. Виктор неспроста оказался в криминальном синдикате: мафия уничтожила его семью, поэтому он хочет отомстить. Об этом узнает загадочная Беатрис, соблазняет его и шантажирует. Однако у героев только одна цель в жизни - месть. И она приведет их к кровавой развязке.

  • Рейтинг
    kinopoisk.ru: 6.801 (2128)
    imdb.com: 6.70 (4 769)
    MPAA: R - Лицам до 17 лет обязательно присутствие взрослого
    • Качество: BD Remux
    • Формат: MKV
    • Видео кодек: AVC
    • Аудио кодек: DTS-AC3
    • Видео: AVC, 1920x1080 (16:9), 26326 kbps, 23,976 fps, 0,530 bpp
    • Аудио №1: русский / AC3 / 5.1 / 48 kHz / 448 kbps / 16 bit ||
      Аудио №2: английский / DTS-HD / 5.1 / 48 kHz / 1560 kbps / 24 bit (Core: 5.1 / 48 kHz / 1510 kbps / 24 bit)
      Аудио №3: английский / AC3 / 5.1 / 48 kHz / 640 kbps / 16 bit [ комментарии]

    General
    Unique ID : 206120012137160660662522427692915344269 (0x9B114535BD2E0DE5AD1907949A23C38D)
    Complete name : D:ТорентыОдним.меньше-Dead.Man.Down.(2013).BDRemux.[1080p].nnm-club.ru.mkv
    Format : Matroska
    Format version : Version 2
    File size : 24.3 GiB
    Duration : 1h 57mn
    Overall bit rate mode : Variable
    Overall bit rate : 29.6 Mbps
    Movie name : Lelya_K for NNM-Club.ru
    Encoded date : UTC 2013-06-29 11:07:37
    Writing application : mkvmerge v5.7.0 ('The Whirlwind') built on Aug 7 2012 14:11:40
    Writing library : libebml v1.2.3 + libmatroska v1.3.0

    Video
    ID : 1
    Format : AVC
    Format/Info : Advanced Video Codec
    Format profile : High@L4.1
    Format settings, CABAC : Yes
    Format settings, ReFrames : 2 frames
    Codec ID : V_MPEG4/ISO/AVC
    Duration : 1h 57mn
    Bit rate mode : Variable
    Bit rate : 26.3 Mbps
    Width : 1 920 pixels
    Height : 1 080 pixels
    Display aspect ratio : 16:9
    Frame rate : 23.976 fps
    Color space : YUV
    Chroma subsampling : 4:2:0
    Bit depth : 8 bits
    Scan type : Progressive
    Bits/(Pixel*Frame) : 0.530
    Stream size : 21.7 GiB (89%)
    Title : Одним.меньше-Dead.Man.Down.(2013).BDRemux.[1080p]
    Language : English
    Default : Yes
    Forced : No

    Audio #1
    ID : 2
    Format : AC-3
    Format/Info : Audio Coding 3
    Mode extension : CM (complete main)
    Codec ID : A_AC3
    Duration : 1h 57mn
    Bit rate mode : Constant
    Bit rate : 448 Kbps
    Channel(s) : 6 channels
    Channel positions : Front: L C R, Side: L R, LFE
    Sampling rate : 48.0 KHz
    Bit depth : 16 bits
    Compression mode : Lossy
    Stream size : 377 MiB (2%)
    Title : AC3 5.1 / 448 kbps
    Language : Russian
    Default : Yes
    Forced : No

    Audio #2
    ID : 3
    Format : DTS
    Format/Info : Digital Theater Systems
    Format profile : MA / Core
    Codec ID : A_DTS
    Duration : 1h 57mn
    Bit rate mode : Variable
    Bit rate : 1 561 Kbps / 1 510 Kbps
    Channel(s) : 6 channels
    Channel positions : Front: L C R, Side: L R, LFE
    Sampling rate : 48.0 KHz
    Bit depth : 24 bits
    Compression mode : Lossless / Lossy
    Title : DTS-HD MA 5.1 / 3497 kbps
    Language : English
    Default : No
    Forced : No

    Audio #3
    ID : 4
    Format : AC-3
    Format/Info : Audio Coding 3
    Mode extension : CM (complete main)
    Codec ID : A_AC3
    Duration : 1h 57mn
    Bit rate mode : Constant
    Bit rate : 640 Kbps
    Channel(s) : 6 channels
    Channel positions : Front: L C R, Side: L R, LFE
    Sampling rate : 48.0 KHz
    Bit depth : 16 bits
    Compression mode : Lossy
    Stream size : 539 MiB (2%)
    Title : Commentary
    Language : English
    Default : No
    Forced : No

    Text #1
    ID : 5
    Format : PGS
    Codec ID : S_HDMV/PGS
    Codec ID/Info : The same subtitle format used on BDs/HD-DVDs
    Title : Full
    Language : English
    Default : No
    Forced : No

    Text #2
    ID : 6
    Format : PGS
    Codec ID : S_HDMV/PGS
    Codec ID/Info : The same subtitle format used on BDs/HD-DVDs
    Title : SDH
    Language : English
    Default : No
    Forced : No

    Menu
    00:00:00.000 : en:Chapter 1
    00:11:40.950 : en:Chapter 2
    00:16:48.590 : en:Chapter 3
    00:25:18.642 : en:Chapter 4
    00:30:38.628 : en:Chapter 5
    00:36:37.778 : en:Chapter 6
    00:41:19.810 : en:Chapter 7
    00:46:36.668 : en:Chapter 8
    00:55:52.515 : en:Chapter 9
    01:03:13.206 : en:Chapter 10
    01:12:09.033 : en:Chapter 11
    01:18:25.033 : en:Chapter 12
    01:24:07.042 : en:Chapter 13
    01:31:35.865 : en:Chapter 14
    01:36:36.165 : en:Chapter 15
    01:42:52.416 : en:Chapter 16
    • Стью Беннетт выступает в качестве профессионального рестлера под именем Уэйд Барретт. World Wrestling Entertainment (WWE) является одним из продюсеров этого фильма.
    Сценарий: Дж. Х. Уаймен / J.H. Wyman
    Продюсер: Дж. Х. Уаймен / J.H. Wyman, Нил Х. Мориц / Neal H. Moritz, Бэйли Конуэй / Bailey Conway, Стивен Сквилланте / Steven Squillante, Джозеф Золфо / Joseph Zolfo
    Оператор: Пол Кэмерон / Paul Cameron
    Композитор: Джейкоб Грот / Jacob Groth

    Сборы в США: $10 895 295
    Сборы в России: $822 607
    Сборы в мире: $18 074 539

    Мировая премьера: 8 марта 2013




    © Оформление by Vetal



  • Скачать Одним меньше через торрент http://i4-imageban-ru.translate.goog/out/2013/06/30/e11f885bae6c68c31be975b06c66f47b.jpg Скачать, смотреть онлайн Одним меньше бесплантно в хорошем качестве Описание:История человека по имени Виктор, он правая рука лидера преступной группировки из Нью-Йорка. Виктор неспроста оказался в ... 10 10 5
    Info! Золотая раздача, скачанное не засчитывается.
    Торрент: Зарегистрирован [2013-06-30 14:27] · скачан: 176 раз
    Статус: √ проверено
    Размер: 24.32 GB
    Как cкачать? Как скачать Одним меньше через торрент | UTorrent

    % Раздел Тема Автор DL S | L
    Фильмы 2013 [DVDrip, WEB-DLRip, HDrip] [ 2.03 GB ] Одним меньше / Dead Man Down | Лицензия | BDRip-AVC , Дубляж, Лицензия МАКС1 Скачать
    1 | 0
    Фильмы [HD 720p, 1080p] (Хороший звук DUB, MVO) [ 5.03 GB ] Одним меньше / Dead Man Down | Дубляж | 720p, Дубляж [лицензия Ворон Скачать
    1 | 0

    28-11-2019 20:33  


    Отключить вcю реклaмy на сайте, в т.ч. и в плеере онлайн просмотра!

      Дорогой пользователь! Огромная просьба, поблагодарите релизера, оцените раздачу и оставьте свои комментарий, если Вы скачали Одним меньше через торрент бесплатно!!
      Комментировать посты могут только пользователи прошедшие не сложную регистрацию
      Показать сообщения:    


      Одним меньше через торрент
      Скачать бесплатно Одним меньше
      Одним меньше скачать торрент
      Одним меньше смотреть онлайн
      Cкачать фильм Одним меньше бесплатно
      Одним меньше скачать торрент в хорошем качестве
      Одним меньше смотреть онлайн бесплатно в хорошем качестве
      Вы не можете начинать темы
      Вы не можете отвечать на сообщения
      Вы не можете редактировать свои сообщения
      Вы не можете удалять свои сообщения
      Вы не можете голосовать в опросах
      Вы не можете прикреплять файлы к сообщениям
      Вы можете скачивать файлы
      Одним меньше / Dead Man Down [ 2013 , США , триллер, драма, криминал , BD Remux ] Дубляж смотреть онлайн, скачать торрент picoco.icu