1 сезон

1 сезон

iTunes

1

iTunes

Кинопоиск HD

iTunes

13

1 сезон

RePack

30

Deluxe

ВАЖНО

ИГРА 18+

pack

RePack

MK11
pack

Легкие деньги

RePack

jed

RePack

fifa19

RePack

RDR2

RePack

NEED FOR SPEED™ PAYBACK

4 сезон

9 сезон

Бесстыжие 9 сезон

Все сериалы

все сериалы на PB.wtf

RePack

FAR CRY 5
  
Magnet ссылка

Столкновение / Crash (Пол Хаггис / Paul Haggis) [2004, США, Германия, Драма, BDRip] [Режиссерская версия / Director's Cut] Dub + DVO (Вставки) piratbit.org

Столкновение через торрент piratbit.org

Размер: 1.46 GB | Добавлен: 7 лет 10 мес. назад | Торрент скачан:414 раз
Скачать  

08-07-2013 15:17 Столкновение Скачать торрент  

Столкновение / Crash
«Мы разные, но мы обречены столкнуться...»

Год выпуска: 2004
Выпущено: США, Германия / Blackfriars Bridge, Harris Company
Жанр: драма
Продолжительность: 01:55:00
Перевод: Профессиональный (полное дублирование) + вставки DVO на эпизодах Режиссерской версии

Субтитры: нет

Режиссер:
Пол Хаггис / Paul Haggis

В ролях:
Дон Чидл (Det. Graham Waters), Мэтт Диллон (Officer John Ryan), Райан Филипп (Officer Tom Hansen), Терренс Ховард (Cameron Thayer), Сандра Буллок (Jean Cabot), Тэнди Ньютон (Christine Thayer), Брендан Фрейзер (Rick Cabot), Майкл Пенья (Daniel), Шон Тоуб (Farhad), Лудакрис (Anthony)

Описание:
Закон и преступление, порядок и беспредел, защитник и жертва — неизбежное противостояние и столкновение. Полицейские — порядок, законопослушные граждане — закон. Но все ли граждане, слывущие добропорядочными, соблюдают законы, и всем ли представителям закона стоит доверять? Прикрываясь значком полицейского, они вершат беззаконие и из праведников превращаются в изощренных насильников.

| IMDB | КиноПоиск |

Качество: BDRip [BDRemux, спасибо «Angel9»]
Формат: AVI
Видео кодек: XviD
Аудио кодек: AC3
Видео: 720x304 (2.37:1), 23.976 fps, XviD build 73 ~1420 kbps avg, 0.27 bit/pixel
Аудио: 48 kHz, AC3 Dolby Digital, 3/2 (L,C,R,l,r) + LFE ch, ~384.00 kbps avg

picpicpicpic

Код:

General
Complete name                            : D:Stolknovenie_2004_DC_BDRip_by_Dalemake.avi
Format                                   : AVI
Format/Info                              : Audio Video Interleave
File size                                : 1.46 GiB
Duration                                 : 1h 55mn
Overall bit rate                         : 1 814 Kbps
Writing application                      : VirtualDubMod 1.5.10.3 |
www.virtualdub-fr.org || (build 2550/release)
Writing library                          : VirtualDubMod build 2550/release
Video
ID                                       : 0
Format                                   : MPEG-4 Visual
Format profile                           : Advanced Simple@L5
Format settings, BVOP                    : 1
Format settings, QPel                    : No
Format settings, GMC                     : No warppoints
Format settings, Matrix                  : Custom
Codec ID                                 : XVID
Codec ID/Hint                            : XviD
Duration                                 : 1h 55mn
Bit rate                                 : 1 421 Kbps
Width                                    : 720 pixels
Height                                   : 304 pixels
Display aspect ratio                     : 2.35:1
Frame rate                               : 23.976 fps
Color space                              : YUV
Chroma subsampling                       : 4:2:0
Bit depth                                : 8 bits
Scan type                                : Progressive
Compression mode                         : Lossy
Bits/(Pixel*Frame)                       : 0.271
Stream size                              : 1.14 GiB (78%)
Writing library                          : XviD 73
Audio
ID                                       : 1
Format                                   : AC-3
Format/Info                              : Audio Coding 3
Mode extension                           : CM (complete main)
Format settings, Endianness              : Big
Codec ID                                 : 2000
Duration                                 : 1h 55mn
Bit rate mode                            : Constant
Bit rate                                 : 384 Kbps
Channel(s)                               : 6 channels
Channel positions                        : Front: L C R, Side: L R, LFE
Sampling rate                            : 48.0 KHz
Bit depth                                : 16 bits
Compression mode                         : Lossy
Stream size                              : 316 MiB (21%)
Alignment                                : Split accross interleaves
Interleave, duration                     : 42 ms (1.00 video frame)
Interleave, preload duration             : 500 ms


piratbit.org



Скачать Столкновение через торрент http://3.firepic.org/3/images/2013-07/08/gt2hlu8fzmrm.png Скачать фильм Столкновение через торрент бесплантно в хорошем качестве Описание:Закон и преступление, порядок и беспредел, защитник и жертва — неизбежное противостояние и столкновение. Полицейские — порядок, ... 10 10 4
Info! Золотая раздача, скачанное не засчитывается.
Торрент: Зарегистрирован [2013-07-08 15:17] · скачан: 414 раз
Статус: √ проверено
Размер: 1.46 GB
Как cкачать? Как скачать Столкновение через торрент | UTorrent

% Раздел Тема Автор DL S | L
Фильмы [HD 720p, 1080p] (Хороший звук DUB, MVO) [ 5.9 GB ] Столкновение / Crash / 2004 [2004 BDRip 720p by msltel] DUB 2 x DVO 2 x AVO msltel Скачать
1 | 0
Фильмы [HD 720p, 1080p] (Хороший звук DUB, MVO) [ 16.39 GB ] Столкновение / Crash / 2004 [2004 BDRip 1080p by msltel] DUB 2 x DVO 2 x AVO msltel Скачать
1 | 0
Релизы по Парсеру [Игры, Сериалы и Фильмы и другое...] [ 1.46 GB ] Столкновение / Crash [2004 Германия BDRip] [Режиссерская версия / Director's Cut] AVO sanekbest1 Скачать
1 | 0
Фильмы 2001-2005 [ 2.18 GB ] Столкновение. Режиссёрская версия / Crash. Director's Cut [2004 HQRip] SeriyWolf Скачать
1 | 1
Фильмы [HD 720p, 1080p] (Хороший звук DUB, MVO) [ 6.17 GB ] Столкновение / Crash [2004 BDRip 720p] DUB DVO AVO / Режиссёрская версия msltel Скачать
1 | 0
Фильмы [HD 720p, 1080p] (Хороший звук DUB, MVO) [ 10.19 GB ] Столкновение / Crash [2004 BDRip 1080p DUB DVO AVO] кэп Скачать
1 | 0
Фильмы [HD 720p, 1080p] (Хороший звук DUB, MVO) [ 4.17 GB ] Столкновение / Crash [2004 BDRip ] m9sо Скачать
1 | 0

28-11-2019 20:33  

Отключить всю рекламу на сайте

    Дорогой пользователь! Огромная просьба, поблагодарите релизера, оцените раздачу и оставьте свои комментарий, если Вы скачали Столкновение через торрент бесплатно! Внесите свою лепту в развитие PiratBit!
    Комментировать посты могут только пользователи прошедшие не сложную регистрацию
    Показать сообщения:    

    Столкновение через торрент
    Скачать бесплатно Столкновение
    Столкновение скачать торрент
    Столкновение смотреть онлайн
    Cкачать фильм Столкновение бесплатно
    Столкновение скачать торрент в хорошем качестве
    Столкновение смотреть онлайн бесплатно в хорошем качестве


    Вы не можете начинать темы
    Вы не можете отвечать на сообщения
    Вы не можете редактировать свои сообщения
    Вы не можете удалять свои сообщения
    Вы не можете голосовать в опросах
    Вы не можете прикреплять файлы к сообщениям
    Вы можете скачивать файлы