Ссылка на приватное зеркало нашего сайта всего за 1$. Внимание количество ограничено!!!

2 сезон

iTunes

iTunes

1

iTunes

iTunes

iTunes

WEBRip

iTunes

30
pack

Вам бонус

ВАЖНО

!!Акция!!

Alien_RageХит недели

RePack

Horizon Zero Dawn

ИГРА 18+

pack

RePack

jed

!!Акция!!

Alien_Rage

RePack

fifa19

RePack

Assassins Creed: Odyssey

RePack

NEED FOR SPEED™ PAYBACK

4 сезон

9 сезон

Бесстыжие 9 сезон

Все сериалы

все сериалы на PB.wtf

RePack

FAR CRY 5
  

Судный день / Doomsday (Нил Маршалл) [2008 г., фантастика, боевик, BDRip, Дубляж] piratbit.org

Судный день через торрент piratbit.org

Размер: 2.18 GB | Добавлен: 7 лет 2 мес. назад | Торрент скачан:600 раз
Скачать  

12-07-2013 08:10 Судный день Скачать торрент  

Судный день / Doomsday Год выпуска: 2008
Страна: Великобритания
Производство: Crystal Sky Pictures, Intrepid Pictures
Жанр: фантастика, боевик
Продолжительность: 01:52:50
Перевод: Дубляж + Профессиональный (многоголосый закадровый)

Режиссер: Нил Маршалл
Продюссер: Бенедикт Карвер, Стивен Пол, Джефф Абберли
Сценарий: Нил Маршалл
Бюджет: $30 000 000
Премьера в мире: 14 марта 2008



В ролях: Рона Митра, Боб Хоскинс, Дэвид О’Хара, Адриан Лестер, Рик Уорден, Шон Пертуи, Даррен Морфитт, МайАнна Бёринг, Малкольм МакДауэлл, Кэрин Петерсон, Татьяна Шитова, Александр Новиков, Владимир Антоник, Василий Дахненко, Александр Груздев,

Описание: Великобритания, недалёкое будущее. Смертельный и совершенно неизученный вирус, названный «Жнецом» («Reaper Virus») обрушился на страну, убивая десятки и сотни тысяч жителей. Не имея возможности решить проблему, правительство решает изолировать очаг заразы от не инфицированной местности, построив вокруг территории буйства «Жнеца» стену.Проходит 30 лет, но вирус снова заявил о себе. Тогда было решено послать в заражённую область первоклассную команду спецназа для поисков возможных методов борьбы с вирусом. Ради выполнения цели и сохранения жизней ребятам придется пробиваться через настоящий оживший кошмар...

Доп. информация: Съёмки проходили с 9 февраля по май 2007 года в ЮАР и Великобритании. В начале фильма отряд DDS проникает на борт сухогруза. При этом можно заметить, что корабль имеет русское название: на борту большими черными буквами написано «Первый раз».



Сэмпл / Трейлер

  • Качество: BDRip
  • Формат: AVI
  • Видео кодек: XviD
  • Аудио кодек: AC3
  • Видео: MPEG4, XviD, 720x304 (2.35:1), 23.976 fps, 1 852 Kbps (0.353 bit/pixel)
  • Аудио#1: AC-3, 48.0 KHz, 6 ch, 448 Kbps, CBR (Russian DUB)
  • Аудио#2: AC-3, 48.0 KHz, 6 ch, 448 Kbps, CBR (Ukrainian MVO)
    Формат : AVI
    Формат/Информация : Audio Video Interleave
    Профиль формата : OpenDML
    Размер файла : 2,18 Гбайт
    Продолжительность : 1 ч. 52 м.
    Общий поток : 2765 Кбит/сек
    Название фильма : Doomsday (Theatrical version)
    Жанр : Fantasy, Action, Thriller
    Программа кодирования : VirtualDubModRus 1.5.10.2 (build 2542/release)
    Формат оригинала/Имя : Movie
    Примечание : Rip ot kep

    Видео
    Идентификатор : 0
    Формат : MPEG-4 Visual
    Профиль формата : Advanced Simple@L5
    Параметр BVOP формата : 1
    Параметр QPel формата : Нет
    Параметр GMC формата : Без точки перехода
    Параметр матрицы формата : Default (MPEG)
    Идентификатор кодека : XVID
    Идентификатор кодека/Подсказка : XviD
    Продолжительность : 1 ч. 52 м.
    Битрейт : 1852 Кбит/сек
    Ширина : 720 пикселей
    Высота : 304 пикселя
    Соотношение сторон : 2,35:1
    Частота кадров : 23,976 кадра/сек
    Цветовое пространство : YUV
    Субдискретизация насыщенности : 4:2:0
    Битовая глубина : 8 бит
    Тип развёртки : Прогрессивная
    Метод сжатия : С потерями
    Бит/(Пиксели*Кадры) : 0.353
    Размер потока : 1,46 Гбайт (67%)
    Библиотека кодирования : XviD 73

    Аудио #1
    Идентификатор : 1
    Формат : AC-3
    Формат/Информация : Audio Coding 3
    Расширение режима : CM (complete main)
    Параметр Endianness формата : Big
    Идентификатор кодека : 2000
    Продолжительность : 1 ч. 52 м.
    Вид битрейта : Постоянный
    Битрейт : 448 Кбит/сек
    Каналы : 6 каналов
    Расположение каналов : Front: L C R, Side: L R, LFE
    Частота : 48,0 КГц
    Битовая глубина : 16 бит
    Метод сжатия : С потерями
    Размер потока : 362 Мбайт (16%)
    Выравнивание : Разделение по промежуткам
    Продолжительность промежутка : 42 мс. (1,00 видеокадр)
    Время предзагрузки промежутка : 500 мс.
    Заголовок : Russian

    Аудио #2
    Идентификатор : 2
    Формат : AC-3
    Формат/Информация : Audio Coding 3
    Расширение режима : CM (complete main)
    Параметр Endianness формата : Big
    Идентификатор кодека : 2000
    Продолжительность : 1 ч. 52 м.
    Вид битрейта : Постоянный
    Битрейт : 448 Кбит/сек
    Каналы : 6 каналов
    Расположение каналов : Front: L C R, Side: L R, LFE
    Частота : 48,0 КГц
    Битовая глубина : 16 бит
    Метод сжатия : С потерями
    Размер потока : 362 Мбайт (16%)
    Выравнивание : Разделение по промежуткам
    Продолжительность промежутка : 42 мс. (1,00 видеокадр)
    Время предзагрузки промежутка : 500 мс.
    Заголовок : Ukrainian
    скриншот   скриншот   скриншот   скриншот   скриншот   piratbit.org



  • Скачать Судный день через торрент http://i3.imageban.ru/out/2013/07/12/b59ad3814408b590c265f42f173f13b2.png Скачать фильм Судный день через торрент бесплантно в хорошем качестве Описание: Великобритания, недалёкое будущее. Смертельный и совершенно неизученный вирус, названный «Жнецом» («Reaper Virus») обрушился на ... 9.7 10 34
    Info! Золотая раздача, скачанное не засчитывается.
    Торрент: Зарегистрирован [2013-07-12 08:10] · скачан: 600 раз
    Статус: √ проверено
    Размер: 2.18 GB
    Как cкачать? Как скачать Судный день через торрент | qTorrent

    % Раздел Тема Автор DL S | L
    Фильмы [HD 720p, 1080p] (Хороший звук DUB, MVO) [ 10.86 GB ] Судный день / Doomsday [2008 BDRip 1080p] [Расширенная версия] DUB+2xMVO+2xAVO bober100 Скачать
    1 | 0
    Фильмы [HD 720p, 1080p] (Хороший звук DUB, MVO) [ 6.13 GB ] Судный день / Doomsday [2008 BDRip 1080p HEVC ()] Мичман37 Скачать
    1 | 0
    Видео для КПК и Смартфонов [ 513 MB ] Судный день [Расширенная версия] / Doomsday [2008 BDRip] Стpана Скачать
    1 | 0
    Фильмы (Blu-ray, BD-Remux, HDDVD) [ 18.23 GB ] Судный день / Doomsday[Theatrical Cut] [2008 BD-Remux ] Assasinca Скачать
    1 | 0
    Фильмы 2006-2008 [ 2.05 GB ] Судный день / Doomsday [UNRATED] [2008 HDRip] Lil Badun Скачать
    1 | 0
    Иностранные мультфильмы [ 747 MB ] Супермен: Судный день / Superman/Doomsday [2007 мультфильм HDRip лицензия] ACFIORENTINA Скачать
    1 | 0
    Фильмы 2006-2008 [ 750 MB ] Судный день / Doomsday [2008 ... HDRip] Venxxx Скачать
    1 | 0

    28-11-2019 20:33  

    Отключить всю рекламу на сайте

    12-07-2013 09:57 Судный день Скачать торрент  

    Очень рекомендую! Потрясный фильм и игра актеров на высоте.piratbit.org



    12-07-2013 12:37 Судный день Скачать торрент  

    хороший фильмpiratbit.org



    12-10-2013 19:06 Судный день Скачать торрент  

    Фильм понравился piratbit.org



    24-07-2015 10:28 Судный день Скачать торрент  

    А чё перевод не полный???? ППЦpiratbit.org



    13-07-2018 20:38 Судный день Скачать торрент  

    раздача не работает, хотя 7 пиров..2 день такая шляпаpiratbit.org



      Дорогой пользователь! Огромная просьба, поблагодарите релизера, оцените раздачу и оставьте свои комментарий, если Вы скачали Судный день через торрент бесплатно! Внесите свою лепту в развитие PiratBit!
      Комментировать посты могут только пользователи прошедшие не сложную регистрацию
      Показать сообщения:    

      Судный день через торрент
      Скачать бесплатно Судный день
      Судный день скачать торрент
      Судный день смотреть онлайн
      Cкачать фильм Судный день бесплатно
      Судный день скачать торрент в хорошем качестве
      Судный день смотреть онлайн бесплатно в хорошем качестве


      Вы не можете начинать темы
      Вы не можете отвечать на сообщения
      Вы не можете редактировать свои сообщения
      Вы не можете удалять свои сообщения
      Вы не можете голосовать в опросах
      Вы не можете прикреплять файлы к сообщениям
      Вы можете скачивать файлы