1 сезон

1 сезон

iTunes

1

iTunes

Кинопоиск HD

iTunes

13

1 сезон

RePack

30

Deluxe

ВАЖНО

ИГРА 18+

pack

RePack

MK11
pack

Легкие деньги

RePack

jed

RePack

fifa19

RePack

RDR2

RePack

NEED FOR SPEED™ PAYBACK

4 сезон

9 сезон

Бесстыжие 9 сезон

Все сериалы

все сериалы на PB.wtf

RePack

FAR CRY 5
  
Magnet ссылка

Тринадцать / Thirteen (Кэтрин Хардвик / Catherine Hardwicke) [2003 г., Драма, биография, DVDRip, MVO, Закадровый] piratbit.org

Тринадцать через торрент piratbit.org

Размер: 1.46 GB | Добавлен: 7 лет 9 мес. назад | Торрент скачан:19 раз
Скачать  

12-07-2013 12:23 Тринадцать Скачать торрент  

Тринадцать / Thirteen
Страна: США
Жанр: Драма, биография,
Год выпуска: 2003
Премьера в мире: 17 января 2003
Продолжительность: 1:35:00
Перевод: Профессиональный многоголосый, Закадровый

Режиссер: Кэтрин Хардвик / Catherine Hardwicke
Продюссер: Джеффри Леви-Хинте, Майкл Лондон, Тим Беван
Сценарий: Кэтрин Хардвик, Никки Рид

Бюджет: $2 000 000

В ролях: Холли Хантер, Ивэн Рэйчел Вуд, Никки Рид, Джереми Систо, Брэйди Корбет, Дебора Кара Ангер, Кип Парду, Сара Кларк, Д.В. Моффетт, Ванесса Энн Хадженс,

Описание: Мать главной героини Мелани растит нежную и заботливую дочку Трейси. Трэйси прекрасная ученица в своем классе, прилежно выполняет всю домашнюю работу и регулярно посещает любимую школу. Но однажды все меняется, когда она знакомится с Эви, самой красивой и популярной девочкой в школе.

MPAA: R
IMDB 6.8 (50 666)


Качество: DVDRip
Формат: AVI
Видео кодек: XviD
Аудио кодек: AC3
Видео: 704x368 (1.88:1), 25 fps, XviD 64 ~1719 kbps avg, 0.265 bit/pixel
Аудио#1: 48 kHz, AC3 , 3/2 (L,C,R,l,r) + LFE ch, ~448 kbps
General
Complete name : Thirteen.avi
Format : AVI
Format/Info : Audio Video Interleave
File size : 1.46 GiB
Duration : 1h 35mn
Overall bit rate : 2 177 Kbps
Writing application : VirtualDubMod 1.5.4.1 (build 2066/release)
Writing library : VirtualDubMod build 2066/release

Video
ID : 0
Format : MPEG-4 Visual
Format profile : Advanced Simple@L5
Format settings, BVOP : 1
Format settings, QPel : No
Format settings, GMC : No warppoints
Format settings, Matrix : Custom
Codec ID : XVID
Codec ID/Hint : XviD
Duration : 1h 35mn
Bit rate : 1 719 Kbps
Width : 704 pixels
Height : 368 pixels
Display aspect ratio : 1.913
Frame rate : 25.000 fps
Color space : YUV
Chroma subsampling : 4:2:0
Bit depth : 8 bits
Scan type : Progressive
Compression mode : Lossy
Bits/(Pixel*Frame) : 0.265
Stream size : 1.15 GiB (79%)
Writing library : XviD 64

Audio
ID : 1
Format : AC-3
Format/Info : Audio Coding 3
Mode extension : CM (complete main)
Codec ID : 2000
Duration : 1h 35mn
Bit rate mode : Constant
Bit rate : 448 Kbps
Channel(s) : 6 channels
Channel positions : Front: L C R, Side: L R, LFE
Sampling rate : 48.0 KHz
Bit depth : 16 bits
Compression mode : Lossy
Stream size : 307 MiB (21%)
Alignment : Split accross interleaves
Interleave, duration : 40 ms (1.00 video frame)
Interleave, preload duration : 500 ms













Тринадцать скачать торрент


piratbit.org



Скачать Тринадцать через торрент https://pic1.kartinco.top/images/23/aus1dipzzh.jpg Скачать фильм Тринадцать через торрент бесплантно в хорошем качестве Описание: Мать главной героини Мелани растит нежную и заботливую дочку Трейси. Трэйси прекрасная ученица в своем классе, прилежно выполняет ... 9.5 10 2
Info! Золотая раздача, скачанное не засчитывается.
Торрент: Зарегистрирован [2013-07-12 12:23] · скачан: 19 раз
Статус: √ проверено
Размер: 1.46 GB
Как cкачать? Как скачать Тринадцать через торрент | UTorrent

% Раздел Тема Автор DL S | L
Фильмы [HD 720p, 1080p] (Хороший звук DUB, MVO) [ 9.72 GB ] Тринадцать дней / Thirteen Days [2000 история BDRip 720p by msltel] DUB 3 x MVO AVO msltel Скачать
1 | 0
Фильмы [HD 720p, 1080p] (Хороший звук DUB, MVO) [ 25.28 GB ] Тринадцать дней / Thirteen Days [2000 история BDRip 1080p by msltel] DUB 3 x MVO AVO msltel Скачать
1 | 0
Зарубежные сериалы [ 3.09 GB ] Тринадцать / Thirteen / 1 сезон / 1-5 из 5 серий [2016 WEB-DLRip] MVO [Студия "Позитив"] bober100 Скачать
1 | 0
Фильмы [HD 720p, 1080p] (Хороший звук DUB, MVO) [ 12.24 GB ] Тринадцать / Thirteen [2003 BDRip 1080p by msltel] MVO VO msltel Скачать
1 | 0
Фильмы [HD 720p, 1080p] (Хороший звук DUB, MVO) [ 5.49 GB ] Тринадцать / Thirteen [2003 BDRip 720p by msltel] MVO VO msltel Скачать
1 | 0
Зарубежные сериалы [ 6.23 GB ] Тринадцать / Thirteen / Сезон: 1 / Серии 1-5 из 5 [2016 HDTVRip 720р] DVO [ViruseProject] GEKADOL Скачать
1 | 0
Зарубежные сериалы [ 3.37 GB ] Тринадцать / Thirteen / Сезон: 1 / Серии 1-5 из 5 [2016 HDTVRip] DVO [ViruseProject] GEKADOL Скачать
1 | 0


Последний раз редактировалось: Schumakher (2013-07-17 16:00), всего редактировалось 1 раз

28-11-2019 20:33  

Отключить всю рекламу на сайте

    Дорогой пользователь! Огромная просьба, поблагодарите релизера, оцените раздачу и оставьте свои комментарий, если Вы скачали Тринадцать через торрент бесплатно! Внесите свою лепту в развитие PiratBit!
    Комментировать посты могут только пользователи прошедшие не сложную регистрацию
    Показать сообщения:    

    Тринадцать через торрент
    Скачать бесплатно Тринадцать
    Тринадцать скачать торрент
    Тринадцать смотреть онлайн
    Cкачать фильм Тринадцать бесплатно
    Тринадцать скачать торрент в хорошем качестве
    Тринадцать смотреть онлайн бесплатно в хорошем качестве


    Вы не можете начинать темы
    Вы не можете отвечать на сообщения
    Вы не можете редактировать свои сообщения
    Вы не можете удалять свои сообщения
    Вы не можете голосовать в опросах
    Вы не можете прикреплять файлы к сообщениям
    Вы можете скачивать файлы