Marvel's Avengers Deluxe Edition (супер цена) 159р. Внимание количество ограничено!!!

2 сезон

iTunes

iTunes

1

iTunes

iTunes

iTunes

WEBRip

iTunes

30
pack

Новость дня

ВАЖНО

!!Акция!!

Alien_RageХит недели

RePack

Horizon Zero Dawn

ИГРА 18+

pack

RePack

jed

!!Акция!!

Alien_Rage

RePack

fifa19

RePack

Assassins Creed: Odyssey

RePack

NEED FOR SPEED™ PAYBACK

4 сезон

9 сезон

Бесстыжие 9 сезон

Все сериалы

все сериалы на PB.wtf

RePack

FAR CRY 5
  

Голоса безмолвия / They Come Back (Джон Брэдшоу / John Bradshaw) [2007, США, Канада, ужасы, триллер, драма, DVDRip] MVO Original Eng piratbit.org

Голоса безмолвия через торрент piratbit.org

Размер: 1.46 GB | Добавлен: 7 лет 2 мес. назад | Торрент скачан:96 раз
Скачать  

16-07-2013 12:46 Голоса безмолвия Скачать торрент  

Голоса безмолвия / They Come Back


  • Год выпуска:2007
  • Страна: США, Канада
  • Жанр:ужасы, триллер, драма, детектив
  • Продолжительность: 01:24:12
  • Перевод:Профессиональный (многоголосый, закадровый)

  • Субтитры: Нет
    • Режиссер: Джон Брэдшоу / John Bradshaw
    • Продюсер:Дэвид Перлмуттер / David Perlmutter, Льюис Чеслер / Lewis Chesler, Марек Посивал / Marek Posival, Робин Снайдер / Robyn Snyder, Роберт Вон / Robert Vaughn
    • Сценарий:Гари Бултон-Браун / Gary Boulton-Brown

  • В ролях:Миа Киршнер (Faith Hardy), Джонатан Уоттон (Mason), Ниам Уилсон (Marley Charles), Розмари Дансмор (Mrs. Carr), Шарлотта Арнольд (Megan Belleflower), Янна МакИнтош (Naketha), Кристи Брюс (Amanda Charles), Хамиш МакЭван (Edward), Дина Касалус (Sofia), Элва Мэй Хувер (Margaret), Куртеней Дж. Стивенс (Mr. Cross), Halie Zastre (Nasty Girl)
    • Описание:
      Автомобильная катастрофа, гибель родителей, сама Марли чудом осталась жива. Ей всего десять лет, но она уже не ребёнок. После страшной трагедии её старая жизнь закончилась, наступила жизнь новая, совсем другая и непонятная тем, кто рядом с ней. Марли видит и слышит то, что недоступно другим. Она общается с умершими. Это пугает и мучает её, Марли мечтает избавиться от этого проклятого дара, но они всё время возвращаются, чтобы найти тех, кто их слышит...

  • Рейтинг
    kinopoisk.ru: 5.737 (79)
    imdb.com: 5.40 (138)
    • Качество:DVDRip
    • Формат: AVI
    • Видео кодек: XviD
    • Аудио кодек: AC3
    • Видео: XviD, 720x416 (16:9), 1575 kbps, 25 fps, 0,210 bpp
    • Аудио №1: AC3 / 5.1 / 48 kHz / 448 kbps / 16 bit[Многоголосый]
      Аудио №2: AC3 / 5.1 / 48 kHz / 448 kbps / 16 bit[Английский]

    General
    Complete name : D:ТорентыThey Come Back (Голоса безмолвия) 2007.avi
    Format : AVI
    Format/Info : Audio Video Interleave
    File size : 1.46 GiB
    Duration : 1h 24mn
    Overall bit rate : 2 480 Kbps
    Writing application : VirtualDubMod 1.5.4.1 (build 2178/release)
    Writing library : VirtualDubMod build 2178/release

    Video
    ID : 0
    Format : MPEG-4 Visual
    Format profile : Advanced Simple@L5
    Format settings, BVOP : No
    Format settings, QPel : No
    Format settings, GMC : No warppoints
    Format settings, Matrix : Custom
    Codec ID : XVID
    Codec ID/Hint : XviD
    Duration : 1h 24mn
    Bit rate : 1 575 Kbps
    Width : 720 pixels
    Height : 416 pixels
    Display aspect ratio : 16:9
    Frame rate : 25.000 fps
    Color space : YUV
    Chroma subsampling : 4:2:0
    Bit depth : 8 bits
    Scan type : Progressive
    Compression mode : Lossy
    Bits/(Pixel*Frame) : 0.210
    Stream size : 949 MiB (64%)
    Writing library : XviD 1.2.1 (UTC 2008-12-04)

    Audio #1
    ID : 1
    Format : AC-3
    Format/Info : Audio Coding 3
    Mode extension : CM (complete main)
    Codec ID : 2000
    Duration : 1h 24mn
    Bit rate mode : Constant
    Bit rate : 448 Kbps
    Channel(s) : 6 channels
    Channel positions : Front: L C R, Side: L R, LFE
    Sampling rate : 48.0 KHz
    Bit depth : 16 bits
    Compression mode : Lossy
    Stream size : 270 MiB (18%)
    Alignment : Split accross interleaves
    Interleave, duration : 96 ms (2.40 video frames)
    Interleave, preload duration : 96 ms

    Audio #2
    ID : 2
    Format : AC-3
    Format/Info : Audio Coding 3
    Mode extension : CM (complete main)
    Codec ID : 2000
    Duration : 1h 24mn
    Bit rate mode : Constant
    Bit rate : 448 Kbps
    Channel(s) : 6 channels
    Channel positions : Front: L C R, Side: L R, LFE
    Sampling rate : 48.0 KHz
    Bit depth : 16 bits
    Compression mode : Lossy
    Stream size : 270 MiB (18%)
    Alignment : Split accross interleaves
    Interleave, duration : 96 ms (2.40 video frames)
    Interleave, preload duration : 96 ms
    Сценарий: Гари Бултон-Браун / Gary Boulton-Brown
    Продюсер: Дэвид Перлмуттер / David Perlmutter, Льюис Чеслер / Lewis Chesler, Марек Посивал / Marek Posival, Робин Снайдер / Robyn Snyder, Роберт Вон / Robert Vaughn
    Оператор: Джон Дайер / John Dyer
    Композитор: Стэйси Херш / Stacey Hersh

    Мировая премьера: 3 марта 2007
    Релиз на DVD: 11 февраля 2010, «Флагман-Трейд»




    © Оформление by Vetalpiratbit.org



  • Скачать Голоса безмолвия через торрент http://i6.imageban.ru/out/2013/07/16/1249a1a117fe36916a6ffd5f531fab7c.jpg Скачать фильм Голоса безмолвия через торрент бесплантно в хорошем качестве Описание:Автомобильная катастрофа, гибель родителей, сама Марли чудом осталась жива. Ей всего десять лет, но она уже не ребёнок. После ... 8.3 10 4
    Info! Золотая раздача, скачанное не засчитывается.
    Торрент: Зарегистрирован [2013-07-16 12:45] · скачан: 96 раз
    Статус: √ проверено
    Размер: 1.46 GB
    Как cкачать? Как скачать Голоса безмолвия через торрент | qTorrent

    28-11-2019 20:33  

    Отключить всю рекламу на сайте

      Дорогой пользователь! Огромная просьба, поблагодарите релизера, оцените раздачу и оставьте свои комментарий, если Вы скачали Голоса безмолвия через торрент бесплатно! Внесите свою лепту в развитие PiratBit!
      Комментировать посты могут только пользователи прошедшие не сложную регистрацию
      Показать сообщения:    

      Голоса безмолвия через торрент
      Скачать бесплатно Голоса безмолвия
      Голоса безмолвия скачать торрент
      Голоса безмолвия смотреть онлайн
      Cкачать фильм Голоса безмолвия бесплатно
      Голоса безмолвия скачать торрент в хорошем качестве
      Голоса безмолвия смотреть онлайн бесплатно в хорошем качестве


      Вы не можете начинать темы
      Вы не можете отвечать на сообщения
      Вы не можете редактировать свои сообщения
      Вы не можете удалять свои сообщения
      Вы не можете голосовать в опросах
      Вы не можете прикреплять файлы к сообщениям
      Вы можете скачивать файлы