1 сезон

1 сезон

iTunes

1

iTunes

Кинопоиск HD

iTunes

13

1 сезон

RePack

30

Deluxe

ВАЖНО

ИГРА 18+

pack

RePack

MK11
pack

Легкие деньги

RePack

jed

RePack

fifa19

RePack

RDR2

RePack

NEED FOR SPEED™ PAYBACK

4 сезон

9 сезон

Бесстыжие 9 сезон

Все сериалы

все сериалы на PB.wtf

RePack

FAR CRY 5
  
Magnet ссылка

Гонщик / Driven (Ренни Харлин / Renny Harlin) [2001, Драма, спорт, боевик, BDRip] [DUB] piratbit.org

Гонщик через торрент piratbit.org

Раздают: 1 [ 0 KB/s ]
Размер: 1.46 GB | Добавлен: 7 лет 9 мес. назад | Торрент скачан:344 раза
Скачать  

21-07-2013 14:03 Гонщик Скачать торрент  

Гонщик / Driven«Что тебя заводит?»
Год выпуска: 2001
Страна: США, Канада, Австралия
Жанр: драма, спорт, боевик
Продолжительность: 01:56:49
Перевод: Профессиональный (полное дублирование)
Cубтитры: нет

Режиссер: Ренни Харлин / Renny Harlin

В ролях: Сильвестр Сталлоне (Joe Tanto), Берт Рейнолдс (Carl Henry), Кип Парду (Jimmy Bly), Стэйси Эдвардс (Lucretia Clan), Тиль Швайгер (Beau Brandenburg), Джина Гершон (Cathy Heguy), Эстелла Уоррен (Sophia Simone), Кристиан де ла Фуэнте (Memo Moreno), Брент Бриско (Crusher), Роберт Шон Леонард (Demille Bly)

Описание: Чрезвычайно талантливый, но еще очень молодой гонщик Джимми Блай внезапно начинает терять «хватку». Блай — восходящая звезда, и босс его команды отчетливо понимает, что срочно необходим «матерый» специалист-наставник, который не даст карьере Джимми сойти «на нет».
Этим специалистом становится Джо Тэнто — опытнейший гонщик и экс-чемпион. Некоторое время назад Тэнто вынужден был покинуть мир гонок из-за несчастного случая. Но теперь у Джо есть уникальный шанс не только сделать юного Блая новым королем гонщиков, но и доказать всем, на что еще способен он сам.


Официальный сайт

Качество: BDRip [BDRemux]
Формат: AVI
Видео кодек: XviD
Аудио кодек: AC3
Видео: 720x304 (2.37:1), 23.976 fps, XviD build 73 ~1329 kbps avg, 0.25 bit/pixel
Аудио: 48 kHz, AC3 Dolby Digital, 3/2 (L,C,R,l,r) + LFE ch, ~448.00 kbps avg
General
Complete name : D:Gonzhik_2001_BDRip_by_Dalemake.avi
Format : AVI
Format/Info : Audio Video Interleave
File size : 1.46 GiB
Duration : 1h 56mn
Overall bit rate : 1 787 Kbps
Writing application : VirtualDubMod 1.5.10.3 | www.virtualdub-fr.org || (build 2550/release)
Writing library : VirtualDubMod build 2550/release

Video
ID : 0
Format : MPEG-4 Visual
Format profile : Advanced Simple@L5
Format settings, BVOP : 1
Format settings, QPel : No
Format settings, GMC : No warppoints
Format settings, Matrix : Custom
Codec ID : XVID
Codec ID/Hint : XviD
Duration : 1h 56mn
Bit rate : 1 330 Kbps
Width : 720 pixels
Height : 304 pixels
Display aspect ratio : 2.35:1
Frame rate : 23.976 fps
Color space : YUV
Chroma subsampling : 4:2:0
Bit depth : 8 bits
Scan type : Progressive
Compression mode : Lossy
Bits/(Pixel*Frame) : 0.253
Stream size : 1.09 GiB (74%)
Writing library : XviD 73

Audio
ID : 1
Format : AC-3
Format/Info : Audio Coding 3
Mode extension : CM (complete main)
Format settings, Endianness : Big
Codec ID : 2000
Duration : 1h 56mn
Bit rate mode : Constant
Bit rate : 448 Kbps
Channel(s) : 6 channels
Channel positions : Front: L C R, Side: L R, LFE
Sampling rate : 48.0 KHz
Bit depth : 16 bits
Compression mode : Lossy
Stream size : 374 MiB (25%)
Alignment : Split accross interleaves
Interleave, duration : 42 ms (1.00 video frame)
Interleave, preload duration : 500 ms
piratbit.org



Скачать Гонщик через торрент http://i48.fastpic.ru/big/2013/0721/b3/98ed159e329c596e3311183fff020db3.jpg Скачать фильм Гонщик через торрент бесплантно в хорошем качестве Описание: Чрезвычайно талантливый, но еще очень молодой гонщик Джимми Блай внезапно начинает терять «хватку». Блай — восходящая звезда, и ... 10 10 20
Info! Золотая раздача, скачанное не засчитывается.
Торрент: Зарегистрирован [2013-07-21 14:03] · скачан: 344 раз
Статус: √ проверено
Размер: 1.46 GB
Как cкачать? Как скачать Гонщик через торрент | UTorrent

% Раздел Тема Автор DL S | L
Фильмы [HD 720p, 1080p] (Хороший звук DUB, MVO) [ 9.73 GB ] Гонщик / Driven [2001 BDRip 720p DUB MVO AVO] кэп Скачать
1 | 0
Фильмы 2001-2005 [ 1.37 GB ] Гонщик / Driven [2001 Спорт DVDRip] -=Cherry=- Скачать
1 | 0
Фильмы 2001-2005 [ 2.17 GB ] Гонщик / Driven [2001 DVDRip] Lil Badun Скачать
1 | 0

28-11-2019 20:33  

Отключить всю рекламу на сайте

21-07-2013 14:43 Гонщик Скачать торрент  

золото поставьте плизpiratbit.org



21-07-2013 14:56 Гонщик Скачать торрент  

Ох ты я и забыл что там Тиль играет! Спасибо за раздачу!piratbit.org



    Дорогой пользователь! Огромная просьба, поблагодарите релизера, оцените раздачу и оставьте свои комментарий, если Вы скачали Гонщик через торрент бесплатно! Внесите свою лепту в развитие PiratBit!
    Комментировать посты могут только пользователи прошедшие не сложную регистрацию
    Показать сообщения:    

    Гонщик через торрент
    Скачать бесплатно Гонщик
    Гонщик скачать торрент
    Гонщик смотреть онлайн
    Cкачать фильм Гонщик бесплатно
    Гонщик скачать торрент в хорошем качестве
    Гонщик смотреть онлайн бесплатно в хорошем качестве


    Вы не можете начинать темы
    Вы не можете отвечать на сообщения
    Вы не можете редактировать свои сообщения
    Вы не можете удалять свои сообщения
    Вы не можете голосовать в опросах
    Вы не можете прикреплять файлы к сообщениям
    Вы можете скачивать файлы