Ссылка на приватное зеркало нашего сайта всего за 1$. Внимание количество ограничено!!!

2 сезон

iTunes

iTunes

1

iTunes

iTunes

iTunes

WEBRip

iTunes

30
pack

Забери бонус

ВАЖНО

!!Акция!!

Alien_RageХит недели

RePack

RESIDENT EVIL 3: NEMESIS REMAKE

ИГРА 18+

pack

RePack

jed

!!Акция!!

Alien_Rage

RePack

fifa19

RePack

Assassins Creed: Odyssey

RePack

NEED FOR SPEED™ PAYBACK

4 сезон

9 сезон

Бесстыжие 9 сезон

Все сериалы

все сериалы на PB.wtf

RePack

FAR CRY 5
  

Война / War (Филлип Дж. Этвелл / Phillip G. Atwell) [2007 г., DVDRip, Дубляж,[ лицензия ] piratbit.org

Война через торрент piratbit.org

Размер: 1.37 GB | Добавлен: 7 лет 2 мес. назад | Торрент скачан:235 раз
Скачать  

23-07-2013 16:19 Война Скачать торрент  

Война / War
Год выпуска: 2007
Страна: США
Продолжительность: 01:38:00
Перевод: Профессиональный (полное дублирование) [Лицензия]

Режиссер: Филлип Дж. Этвелл / Phillip G. Atwell

В ролях: Джет Ли, Джейсон Стэтхэм, Джон Лоун, Девон Аоки, Луис Гузман, Сол Рубинек,

Описание: Уже долгое время полиция не может поймать циничного и беспощадного убийцу. Киллер экстра-класса, о чьей жестокости ходят легенды даже в криминальном мире, практически неуязвим. Играючи, он выскальзывает из какой угодно ловушки и уходит от любой погони, оставляя за собой горы трупов. Агент ФБР Джек Кроуфорд принимает участие в расследовании. Потеряв напарника в одной из схваток с убийцей, он преследует только одну цель - уничтожить неуловимого киллера!

Качество: DVDRip
Формат: AVI
Видео кодек: XviD
Аудио кодек: AC3
Видео : 704 x 304 (2.35:1), 1756 Kbps, 25.000 fps, bits 0.328
Аудио: 224 Kbps, 2 channels, 48.0 KHz
Общее

Полное имя : C:Usersse7enDesktopНовая папкаWar.2007.D.DVDRip.avi
Формат : AVI
Формат/Информация : Audio Video Interleave
Размер файла : 1,37 Гбайт
Продолжительность : 1 ч. 38 м.
Общий поток : 1990 Кбит/сек
Программа кодирования : VirtualDubMod 1.5.4.1 (build 2178/release)
Библиотека кодирования : VirtualDub build 24463/release

Видео

Идентификатор : 0
Формат : MPEG-4 Visual
Профиль формата : Advanced Simple@L5
Параметр BVOP формата : 1
Параметр QPel формата : Нет
Параметр GMC формата : Без точки перехода
Параметр матрицы формата : Выборочная
Идентификатор кодека : XVID
Идентификатор кодека/Подсказка : XviD
Продолжительность : 1 ч. 38 м.
Битрейт : 1756 Кбит/сек
Ширина : 704 пикселя
Высота : 304 пикселя
Соотношение сторон : 2,35:1
Частота кадров : 25,000 кадров/сек
Цветовое пространство : YUV
Субдискретизация насыщенности : 4:2:0
Битовая глубина : 8 бит
Тип развёртки : Прогрессивная
Метод сжатия : С потерями
Бит/(Пиксели*Кадры) : 0.328
Размер потока : 1,21 Гбайт (88%)
Библиотека кодирования : XviD 1.2.0.dev47 (UTC 2006-11-01)

Аудио

Идентификатор : 1
Формат : AC-3
Формат/Информация : Audio Coding 3
Расширение режима : CM (complete main)
Параметр Endianness формата : Big
Идентификатор кодека : 2000
Продолжительность : 1 ч. 38 м.
Вид битрейта : Постоянный
Битрейт : 224 Кбит/сек
Каналы : 2 канала
Расположение каналов : Front: L R
Частота : 48,0 КГц
Битовая глубина : 16 бит
Метод сжатия : С потерями
Размер потока : 158 Мбайт (11%)
Выравнивание : Соединение по промежуткам
Продолжительность промежутка : 40 мс. (1,00 видеокадр)
Время предзагрузки промежутка : 512 мс.

piratbit.org



Скачать Война через торрент http://file.kirovnet.ru/files/285/285170/dc6943d58143f399a39cd6cf0346ae4c.jpg Скачать фильм Война через торрент бесплантно в хорошем качестве Описание: Уже долгое время полиция не может поймать циничного и беспощадного убийцу. Киллер экстра-класса, о чьей жестокости ходят легенды ... 9.7 10 21
Info! Золотая раздача, скачанное не засчитывается.
Торрент: Зарегистрирован [2013-07-23 16:19] · скачан: 235 раз
Статус: √ проверено
Размер: 1.37 GB
Как cкачать? Как скачать Война через торрент | qTorrent

% Раздел Тема Автор DL S | L
Сборники на DVD и Сиквелы [DVDrip, WEB-DLRip, HDrip, BDRip] [ 4.36 GB ] Звёздные войны 123456 / Star Wars [1977 1980 1983 1999 2002 2005 г HDTVRip-AVC] DUB - Мега-сборка на 1 DVD L_E_X Скачать
1 | 0
Зарубежные сериалы [ 3.71 GB ] Войны байкеров / Bikie Wars: Brothers in Arms / Сезон: 1 / Серии: 1-6 [2012 история образ жизни HDRip] MVO FilmGate + Original wekotila Скачать
1 | 1
Дополнения к играм [ 1.03 GB ] Герои меча и магии 5: Эпоха эпических войн / Heroes of Might & Magic V: Epic War Age [лицензияRUМодификация / Аdd-Оn / Пошаговая стратегия] Ghost161 Скачать
2 | 0
RPG [ 4.1 GB ] Star Wars: Battlefront. Anthology / Звёздные войны: Арена войны. Антология [RePackRU/ENLucasArts Entertainment] IZnoGood Скачать
1 | 0
Фильмы (Blu-ray, BD-Remux, HDDVD) [ 21.99 GB ] Звездные войны: Эпизод 3 - Месть Ситхов / Star Wars: Episode III - Revenge of the Sith [2005 BDRip 1080p] fallen_poet Скачать
1 | 0
RTS (стратегии в реальном времени) [ 4.62 GB ] Warhammer 40k Dawn of War: Рассвет войны - Зов улья 2011 [ПираткаRUStrategy / 3D] =Чувак= Скачать
1 | 0
TBS (пошаговые стратегии) [ 1.66 GB ] Герои Меча и Магии IV + Грядущая буря + Вихри войны [Бука] [L] Shmel Скачать
1 | 0


Последний раз редактировалось: bravon7 (2013-07-23 16:58), всего редактировалось 1 раз

28-11-2019 20:33  

Отключить всю рекламу на сайте

23-07-2013 16:38 Война Скачать торрент  

Выложи строку видео и аудио. http://puu.sh/3JQqH.pngpiratbit.org



25-07-2013 07:34 Война Скачать торрент  

очень весело! уже 2й день качаю piratbit.org



    Дорогой пользователь! Огромная просьба, поблагодарите релизера, оцените раздачу и оставьте свои комментарий, если Вы скачали Война через торрент бесплатно! Внесите свою лепту в развитие PiratBit!
    Комментировать посты могут только пользователи прошедшие не сложную регистрацию
    Показать сообщения:    

    Война через торрент
    Скачать бесплатно Война
    Война скачать торрент
    Война смотреть онлайн
    Cкачать фильм Война бесплатно
    Война скачать торрент в хорошем качестве
    Война смотреть онлайн бесплатно в хорошем качестве


    Вы не можете начинать темы
    Вы не можете отвечать на сообщения
    Вы не можете редактировать свои сообщения
    Вы не можете удалять свои сообщения
    Вы не можете голосовать в опросах
    Вы не можете прикреплять файлы к сообщениям
    Вы можете скачивать файлы