2 сезон

iTunes

MVO

1

2 сезон

iTunes

iTunes

1 сезон

RePack

30

Новинка

ВАЖНО

ИГРА 18+

pack

RePack

MK11
pack

Легкие деньги

RePack

jed

RePack

fifa19

RePack

RDR2

RePack

NEED FOR SPEED™ PAYBACK

4 сезон

9 сезон

Бесстыжие 9 сезон

Все сериалы

все сериалы на PB.wtf

RePack

FAR CRY 5

Anonymous, доброй ночи, мы не успеваем собрать деньги на оплату серверов за декабрь и январь, помогите нам пожалуйста в это трудное время. В качестве благодарности мы отключим Вам всю рекламу на сайте (укажите свой ник в строку Ваше имя)!

×
  
Magnet ссылка

Икона (Заза Мерабишвили, Джаба Руадзе) [2012, драма, HDTVRip] piratbit.org

Икона через торрент piratbit.org

Размер: 1.37 GB | Добавлен: 6 лет назад | Торрент скачан:142 раза
Скачать  

27-07-2013 01:45 Икона Скачать торрент  

Икона


  • Год выпуска:2012
  • Страна:Россия
  • Жанр:Драма
  • Продолжительность: 01:08:59
  • Перевод:Не требуется

  • Субтитры: Нет
    • Режиссер:Заза Мерабишвили, Джаба Руадзе

  • В ролях:Николоз Чхиквадзе, Нато Гагнидзе, Екатерина Редникова, Леван Хурция, Анатолий Пашинин, Андрей Панин, Борис Щербаков, Виктория Романенко, Зинаида Бородкина, Картлос Марадишвили, Саба Цехелашвили, Нина Менабдашвили
    • Описание:
      Фильм состоит из двух частей. Их связывает одна тонкая художественная деталь - икона святого Георгия.
      «Тбилиси - Москва». 35-летняя грузинка Лали, мать-одиночка, воспитывает 5-летнего Георгия. Из-за полученной в детстве травмы головы она вынуждена ехать в Москву на лечение. В Москве Лали встречается со своей давней подругой Ниной, которой спас жизнь ее отец, когда они были в пионерском лагере. Нина делает все для спасения Лали...
      «В поисках Святого Георгия». Священник Грузинской Православной церкви отец Дмитрий отправляется в Москву, чтобы найти и вернуть икону Святого Георгия, из-за которой большевиками во время смуты были расстреляны священнослужители.

  • Рейтинг
    kinopoisk.ru: 6.833 (20)
    • Качество::HDTVRip
    • Формат:AVI
    • Видео кодек: XviD
    • Аудио кодек: AC3
    • Видео: XviD, 720x304 (2.35:1), 2159 kbps, 25 fps, 0,395 bpp
    • Аудио №1: AC3 / 2.0 / 48 kHz / 224 kbps / 16 bit
    • Аудио №2: AC3 / 2.0 / 48 kHz / 448 kbps / 16 bit

    General
    Complete name : /home/msb2426/files/Icona.2012.O.HDTVRip.1400Mb.avi
    Format : AVI
    Format/Info : Audio Video Interleave
    File size : 1.37 GiB
    Duration : 1h 8mn
    Overall bit rate : 2 846 Kbps
    Writing application : VirtualDubMod 1.5.10.2 (build 2540/release)
    Writing library : VirtualDubMod build 2540/release

    Video
    ID : 0
    Format : MPEG-4 Visual
    Format profile : Advanced Simple@L5
    Format settings, BVOP : 2
    Format settings, QPel : No
    Format settings, GMC : No warppoints
    Format settings, Matrix : Custom
    Codec ID : XVID
    Codec ID/Hint : XviD
    Duration : 1h 8mn
    Bit rate : 2 160 Kbps
    Width : 720 pixels
    Height : 304 pixels
    Display aspect ratio : 2.35:1
    Frame rate : 25.000 fps
    Color space : YUV
    Chroma subsampling : 4:2:0
    Bit depth : 8 bits
    Scan type : Progressive
    Compression mode : Lossy
    Bits/(Pixel*Frame) : 0.395
    Stream size : 1.04 GiB (76%)
    Writing library : XviD 1.2.1 (UTC 2008-12-04)

    Audio #1
    ID : 1
    Format : AC-3
    Format/Info : Audio Coding 3
    Mode extension : CM (complete main)
    Format settings, Endianness : Big
    Codec ID : 2000
    Duration : 1h 8mn
    Bit rate mode : Constant
    Bit rate : 224 Kbps
    Channel(s) : 2 channels
    Channel positions : Front: L R
    Sampling rate : 48.0 KHz
    Bit depth : 16 bits
    Compression mode : Lossy
    Stream size : 111 MiB (8%)
    Alignment : Split accross interleaves
    Interleave, duration : 40 ms (1.00 video frame)
    Interleave, preload duration : 500 ms

    Audio #2
    ID : 2
    Format : AC-3
    Format/Info : Audio Coding 3
    Mode extension : CM (complete main)
    Format settings, Endianness : Big
    Codec ID : 2000
    Duration : 1h 8mn
    Bit rate mode : Constant
    Bit rate : 448 Kbps
    Channel(s) : 2 channels
    Channel positions : Front: L R
    Sampling rate : 48.0 KHz
    Bit depth : 16 bits
    Compression mode : Lossy
    Stream size : 221 MiB (16%)
    Alignment : Split accross interleaves
    Interleave, duration : 40 ms (1.00 video frame)
    Interleave, preload duration : 500 ms

    © Оформление by Vetalpiratbit.org



  • Скачать Икона через торрент http://i1.imageban.ru/out/2013/07/27/e93ee9b08561debeb497f8638999a1a6.png Скачать фильм Икона через торрент бесплантно в хорошем качестве Описание:Фильм состоит из двух частей. Их связывает одна тонкая художественная деталь - икона святого Георгия.«Тбилиси - Москва». 35-летняя ... 9.4 10 14
    Торрент: Зарегистрирован [2015-01-07 09:29] · скачан: 142 раз
    Статус: √ проверено
    Размер: 1.37 GB
    Как cкачать? Как скачать Икона через торрент | UTorrent

    % Раздел Тема Автор DL S | L
    Этнические порно фильмы [ 2.44 GB ] Чёрная Икона 14 / Interracial Icon 14 [2020 All Sex Threesome Interracial WEB-DL] bashai5 Скачать
    4 | 0
    Порно фильмы без сюжета [ 2.28 GB ] Иконы 4 / Icons Vol. 4 [2020 All Sex Big Boobs Big Booty Gonzo WEB-DL] bashai5 Скачать
    3 | 0
    Гонзо [ 2.51 GB ] Иконы 3 / Icons Vol. 3 [2019 All Sex Oral Gonzo Facial Older Men Squirting WEB-DLRip] sheker187 Скачать
    1 | 0
    Этнические порно фильмы [ 2.15 GB ] Чёрная Икона 13 / Interracial Icon 13 [2019 All Sex Big Cocks Interracial WEB-DL] bashai5 Скачать
    1 | 0
    Этнические порно фильмы [ 2.33 GB ] Чёрная Икона 11 / Interracial Icon 11 [2019 All Sex Big Cocks Interracial WEB-DL] bashai5 Скачать
    1 | 0
    Гонзо [ 2.8 GB ] Иконы No. 1 / Icons No. 1 [2018 All Sex Oral Gonzo Facial Couples WEB-DLRip] Split Scenes sheker187 Скачать
    1 | 0
    Этнические порно фильмы [ 2.15 GB ] Чёрная Икона 8 / Interracial Icon 8 [2018 All Sex Anal Oral Gonzo Big Cocks Cumshots Interracial WEB-DL 480p] Split Scenes sheker187 Скачать
    1 | 1

    28-11-2019 20:33  

    Отключить всю рекламу на сайте

    07-01-2015 09:32 Икона Скачать торрент  

    Обновил раздачу. Рекомендую к просмотру.piratbit.org



    18-01-2015 22:53 Икона Скачать торрент  

    Хорошее кино, доброе. Немного наивное, есть свои проблемы в режиссуре и сценарии, но это не умаляет его достоинств. Снято с верой в человека.piratbit.org



      Дорогой пользователь! Огромная просьба, поблагодарите релизера, оцените раздачу и оставьте свои комментарий, если Вы скачали Икона через торрент бесплатно! Внесите свою лепту в развитие PiratBit!
      Комментировать посты могут только пользователи прошедшие не сложную регистрацию
      Показать сообщения:    

      Икона через торрент
      Скачать бесплатно Икона
      Икона скачать торрент
      Икона смотреть онлайн
      Cкачать фильм Икона бесплатно
      Икона скачать торрент в хорошем качестве
      Икона смотреть онлайн бесплатно в хорошем качестве


      Вы не можете начинать темы
      Вы не можете отвечать на сообщения
      Вы не можете редактировать свои сообщения
      Вы не можете удалять свои сообщения
      Вы не можете голосовать в опросах
      Вы не можете прикреплять файлы к сообщениям
      Вы можете скачивать файлы