Доктор Стрэндж

Лицензия

Добыча

Дубляж

Дом дракона

1 сезон

Тор

Дубляж

В эфире

Дубляж

Там, где раки поют

MVO

Властелин колец

1 сезон

Deluxe

pack

Рекомендуем

30

Пиратка

ВАЖНО

ВАЖНО

Ghostwire

Пиратка

jed

RePack

nioh2

RePack

RDR2

RePack

NEED FOR SPEED™ PAYBACK

RePack

скачать торрент

Кинопоиск HD

Острые козырьки 6 сезон

6 сезон

FAR CRY 6

RePack

скачать торрент

Лицензия

скачать торрент

MVO

1

1 сезон

скачать торрент

1 сезон

скачать торрент

Лицензия

  

Висельник / Gallowwalkers (Эндрю Гот / Andrew Goth) [ 2012 , США, Великобритания , ужасы, фэнтези, боевик , BDRip 720p ] VO [den904]

Висельник через торрент piratbit.org

Размер: 5.75 GB | Добавлен: 9 лет 4 мес. назад | Торрент скачан:196 раз
Смотреть онлайн | Скачать   

30-07-2013 21:33 Висельник Скачать торрент  

Висельник / Gallowwalkers

«Live by the gun. Die by the gun. Come back for more...»

  • Год выпуска:2012
  • Страна:США, Великобритания
  • Жанр:ужасы, фэнтези, боевик, триллер, вестерн
  • Продолжительность: 01:32:17
  • Перевод:Любительский (одноголосый)[den904]

  • Субтитры: Нет
    • Режиссер:Эндрю Гот / Andrew Goth

  • В ролях:Уэсли Снайпс (Aman), Кевин Ховарт (Kansa), Райли Смит (Fabulos), Танит Феникс (Angel), Симона Брликова (Kisscut), Стивен Элдер (Apollo Jones), Патрик Бергин (Marshall Gaza), Джей Грант (Slip Knot), Гектор Хэнк (Hool), Дэвид Де Бир (Apprentice Boy), Алисса Придхэма (Sueno), Даллас Пейдж (Skullbucket)
    • Описание:
      Вестерн-триллер о бандите, чьи жертвы возвращаются с того света в обличье зомби, и главный герой прибегает к помощи молодого человека, чтобы справиться с ними.

  • Рейтинг
    kinopoisk.ru: 5.960 (223)
    imdb.com: 6.30 (235)
    MPAA: R - Лицам до 17 лет обязательно присутствие взрослого
    • Качество:BDRip 720p
    • Формат:MKV
    • Видео кодек: AVC
    • Аудио кодек: DTS /AC3
    • Видео: AVC, 1280x544 (2.35:1), 6968 kbps, 23,976 fps, 0,417 bpp
    • Аудио №1: русский / AC3 / 5.1 / 48 kHz / 448 kbps / 16 bit ||
      Аудио №2: английский / DTS / 5.1 / 48 kHz / 1510 kbps / 24 bit

    General
    Unique ID : 181797377272327725052288867162547368022 (0x88C4E6B9A131EB4BB522C7AE45593056)
    Complete name : D:ТорентыViselnik.2012.L1.BDRip.720p.mkv
    Format : Matroska
    Format version : Version 2
    File size : 5.75 GiB
    Duration : 1h 32mn
    Overall bit rate : 8 923 Kbps
    Encoded date : UTC 2013-07-29 13:15:38
    Writing application : mkvmerge v5.7.0 ('The Whirlwind') built on Jul 8 2012 20:08:51
    Writing library : libebml v1.2.3 + libmatroska v1.3.0

    Video
    ID : 1
    Format : AVC
    Format/Info : Advanced Video Codec
    Format profile : High@L4.1
    Format settings, CABAC : Yes
    Format settings, ReFrames : 5 frames
    Muxing mode : Header stripping
    Codec ID : V_MPEG4/ISO/AVC
    Duration : 1h 32mn
    Bit rate : 6 968 Kbps
    Width : 1 280 pixels
    Height : 544 pixels
    Display aspect ratio : 2.35:1
    Frame rate mode : Variable / Constant
    Frame rate : 23.976 fps
    Color space : YUV
    Chroma subsampling : 4:2:0
    Bit depth : 8 bits
    Scan type : Progressive
    Bits/(Pixel*Frame) : 0.417
    Stream size : 4.38 GiB (76%)
    Writing library : x264 core 135 r2345 f0c1c53
    Encoding settings : cabac=1 / ref=5 / deblock=1:0:0 / analyse=0x3:0x133 / me=umh / subme=7 / psy=1 / psy_rd=1.00:0.00 / mixed_ref=1 / me_range=16 / chroma_me=1 / trellis=1 / 8x8dct=1 / cqm=0 / deadzone=21,11 / fast_pskip=0 / chroma_qp_offset=-2 / threads=12 / lookahead_threads=2 / sliced_threads=0 / nr=0 / decimate=1 / interlaced=0 / bluray_compat=0 / constrained_intra=0 / bframes=3 / b_pyramid=2 / b_adapt=2 / b_bias=0 / direct=3 / weightb=1 / open_gop=0 / weightp=2 / keyint=250 / keyint_min=23 / scenecut=40 / intra_refresh=0 / rc_lookahead=50 / rc=2pass / mbtree=1 / bitrate=6968 / ratetol=1.0 / qcomp=0.60 / qpmin=0 / qpmax=69 / qpstep=4 / cplxblur=20.0 / qblur=0.5 / ip_ratio=1.40 / aq=1:1.00
    Language : English
    Default : Yes
    Forced : No

    Audio #1
    ID : 2
    Format : AC-3
    Format/Info : Audio Coding 3
    Mode extension : CM (complete main)
    Muxing mode : Header stripping
    Codec ID : A_AC3
    Duration : 1h 32mn
    Bit rate mode : Constant
    Bit rate : 448 Kbps
    Channel(s) : 6 channels
    Channel positions : Front: L C R, Side: L R, LFE
    Sampling rate : 48.0 KHz
    Bit depth : 16 bits
    Compression mode : Lossy
    Stream size : 296 MiB (5%)
    Title : den904
    Language : Russian
    Default : No
    Forced : Yes

    Audio #2
    ID : 3
    Format : DTS
    Format/Info : Digital Theater Systems
    Muxing mode : Header stripping
    Codec ID : A_DTS
    Duration : 1h 32mn
    Bit rate mode : Constant
    Bit rate : 1 510 Kbps
    Channel(s) : 6 channels
    Channel positions : Front: L C R, Side: L R, LFE
    Sampling rate : 48.0 KHz
    Bit depth : 24 bits
    Compression mode : Lossy
    Stream size : 997 MiB (17%)
    Language : English
    Default : No
    Forced : No

    © Оформление by Vetal



  • Скачать Висельник через торрент http://i4-imageban-ru.translate.goog/out/2013/07/31/cb6c8a36c554dfbefdebb768805b1bc3.png Скачать, смотреть онлайн Висельник бесплантно в хорошем качестве Описание:Вестерн-триллер о бандите, чьи жертвы возвращаются с того света в обличье зомби, и главный герой прибегает к помощи молодого ... 10 10 5
    Info! Золотая раздача, скачанное не засчитывается.
    Торрент: Зарегистрирован [2013-07-30 21:33] · скачан: 196 раз
    Статус: √ проверено
    Размер: 5.75 GB
    Как cкачать? Как скачать Висельник через торрент | UTorrent

    % Раздел Тема Автор DL S | L
    Фильмы 2012 [ 2.19 GB ] Висельник / Gallowwalkers | | HDRip-AVC , Любительский (одноголосый закадровый МАКС1 Скачать
    1 | 0
    Фильмы 2012 [ 698 MB ] Висельник / Gallowwalkers | | HDRip Ворон Скачать
    1 | 0
    Фильмы 2012 [ 1.37 GB ] Висельник / Gallowwalkers | | HDRip Ворон Скачать
    1 | 0

    28-11-2019 20:33  


    Отключить вcю реклaмy на сайте, в т.ч. и в плеере онлайн просмотра!

    31-07-2013 17:07 Висельник Скачать торрент  

    Муть полная меня хватило на 10 минут.



    02-08-2013 19:23 Висельник Скачать торрент  

    Vetаl писал(а):

    Муть полная меня хватило на 10 минут.

    - Да по чему же если нравиться Дикий Запад и Некрос самое оно для просмотра



      Дорогой пользователь! Огромная просьба, поблагодарите релизера, оцените раздачу и оставьте свои комментарий, если Вы скачали Висельник через торрент бесплатно!!
      Комментировать посты могут только пользователи прошедшие не сложную регистрацию
      Показать сообщения:    


      Висельник через торрент
      Скачать бесплатно Висельник
      Висельник скачать торрент
      Висельник смотреть онлайн
      Cкачать фильм Висельник бесплатно
      Висельник скачать торрент в хорошем качестве
      Висельник смотреть онлайн бесплатно в хорошем качестве
      Вы не можете начинать темы
      Вы не можете отвечать на сообщения
      Вы не можете редактировать свои сообщения
      Вы не можете удалять свои сообщения
      Вы не можете голосовать в опросах
      Вы не можете прикреплять файлы к сообщениям
      Вы можете скачивать файлы
      Висельник / Gallowwalkers [ 2012 , США, Великобритания , ужасы, фэнтези, боевик , BDRip 720p ] VO [den904] смотреть онлайн, скачать торрент picoco.icu