Доктор Стрэндж

Лицензия

Добыча

Дубляж

Дом дракона

1 сезон

Тор

Дубляж

В эфире

Дубляж

Там, где раки поют

MVO

Властелин колец

1 сезон

Ultimate

pack

Рекомендуем

30

Пиратка

ВАЖНО

ВАЖНО

Ghostwire

Пиратка

jed

RePack

nioh2

RePack

RDR2

RePack

NEED FOR SPEED™ PAYBACK

RePack

скачать торрент

Кинопоиск HD

Острые козырьки 6 сезон

6 сезон

FAR CRY 6

RePack

скачать торрент

Лицензия

скачать торрент

MVO

1

1 сезон

скачать торрент

1 сезон

скачать торрент

Лицензия

  

Третий акт (Волшебство Бэль Айл) / The Magic of Belle Isle (Роб Райнер) [2012 г., драма, комедия, BDRip 720p, DVO]

Третий акт через торрент piratbit.org

Размер: 4.24 GB | Добавлен: 9 лет 3 мес. назад | Торрент скачан:27 раз
Смотреть онлайн | Скачать   

02-08-2013 03:38 Третий акт Скачать торрент  

Третий акт (Волшебство Бэль Айл) / The Magic of Belle IsleГод выпуска: 2012
Страна: США
Жанр: драма, комедия,
Продолжительность: 01:49:19
Перевод: Любительский двухголосый
Субтитры: Русские, английские, испанские

Режиссер: Роб Райнер
Продюссер: Николя Картье, Алан Грейсман, Лори МакКрири
Сценарий: Роб Райнер, Гай Томас, Эндрю Шайнмен

Бюджет: $102 388
Премьера в мире: 1 июня 2012





В ролях: Морган Фримен, Кенан Томпсон, Вирджиния Мэдсен, Эмма Фурманн, Мадлен Кэрролл, Николетт Пьерини, С.Дж. Уилсон, Эш Кристиан, Дебарго Саньял, Фред Уиллард, Джессика Хехт, Кристофер МакКанн, Кевин Поллак, Бойд Холбрук, Розмари Ховард,

Описание: Знаменитый писатель возвращается в маленький город, в котором стал известным. Здесь он пытается раскрыть талант у одной маленькой девочки, которая еще не научилась отпускать свое воображение на волю.
Перевод - Евгении Орловой, закадровый текст читали Полина Касаткина и Сергей Калугин.
Сохранены оригинальные чаптеры как на Blu-ray

Качество: BDRip 720p
Формат: MKV
Видео кодек: MPEG4
Аудио кодек: AC3
Видео: 1280x692 (1.85:1), 23.976 fps, MPEG-4 AVC ~ 4538 kbps avg, 0.214 bit/pixel
Аудио#1: 48 kHz, AC3 Dolby Digital, 3/2 (L,C,R,l,r) + LFE ch, ~384 kbps Russian
Аудио#2: 48 kHz, AC3 Dolby Digital, 3/2 (L,C,R,l,r) + LFE ch, ~640 kbps English
Релиз от: Релиз-группа "Голиаф" и студия "Райдо"скриншот   скриншот   скриншот   скриншот   скриншот   скриншот  




Общее
Уникальный идентификатор : 211683122454006395309818938260437344462 (0x9F40AFB995D293B2A350B43F8CEC20CE)
Полное имя : C:VideoThe.Magic.of.Belle.Isle.2012.L2.BDRip.720p.mkv
Формат : Matroska
Версия формата : Version 2
Размер файла : 4,24 Гбайт
Продолжительность : 1 ч. 49 м.
Общий поток : 5553 Кбит/сек
Название фильма : "Muxed By Goliaf"
Дата кодирования : UTC 2012-10-08 12:09:45
Программа кодирования : mkvmerge v5.8.0 ('No Sleep / Pillow') built on Sep 2 2012 15:37:04
Библиотека кодирования : libebml v1.2.3 + libmatroska v1.3.0

Видео
Идентификатор : 1
Формат : AVC
Формат/Информация : Advanced Video Codec
Профиль формата : High@L4.1
Параметр CABAC формата : Да
Параметр ReFrames формата : 9 кадров
Идентификатор кодека : V_MPEG4/ISO/AVC
Продолжительность : 1 ч. 49 м.
Битрейт : 4538 Кбит/сек
Ширина : 1280 пикселей
Высота : 692 пикселя
Соотношение сторон : 1,85:1
Режим частоты кадров : Постоянный
Частота кадров : 23,976 кадра/сек
Цветовое пространство : YUV
Субдискретизация насыщенности : 4:2:0
Битовая глубина : 8 бит
Тип развёртки : Прогрессивная
Бит/(Пиксели*Кадры) : 0.214
Размер потока : 3,37 Гбайт (80%)
Заголовок : EbP
Библиотека кодирования : x264 core 125 r2207 5f615f7
Настройки программы : cabac=1 / ref=9 / deblock=1:-3:-3 / analyse=0x3:0x133 / me=umh / subme=9 / psy=1 / psy_rd=0.90:0.08 / mixed_ref=1 / me_range=16 / chroma_me=1 / trellis=2 / 8x8dct=1 / cqm=0 / deadzone=21,11 / fast_pskip=0 / chroma_qp_offset=-3 / threads=12 / lookahead_threads=2 / sliced_threads=0 / nr=0 / decimate=0 / interlaced=0 / bluray_compat=0 / constrained_intra=0 / bframes=8 / b_pyramid=2 / b_adapt=2 / b_bias=0 / direct=3 / weightb=1 / open_gop=0 / weightp=2 / keyint=250 / keyint_min=23 / scenecut=40 / intra_refresh=0 / rc=2pass / mbtree=0 / bitrate=4538 / ratetol=1.0 / qcomp=0.60 / qpmin=0 / qpmax=60 / qpstep=4 / cplxblur=20.0 / qblur=0.5 / ip_ratio=1.40 / pb_ratio=1.20 / aq=1:0.90
Язык : English
Default : Да
Forced : Нет
Коэффициенты матрицы : BT.709

Аудио #1
Идентификатор : 2
Формат : AC-3
Формат/Информация : Audio Coding 3
Расширение режима : CM (complete main)
Параметр Endianness формата : Big
Идентификатор кодека : A_AC3
Продолжительность : 1 ч. 49 м.
Вид битрейта : Постоянный
Битрейт : 384 Кбит/сек
Каналы : 6 каналов
Расположение каналов : Front: L C R, Side: L R, LFE
Частота : 48,0 КГц
Битовая глубина : 16 бит
Метод сжатия : С потерями
Размер потока : 300 Мбайт (7%)
Заголовок : DVO [Райдо]
Язык : Russian
Default : Да
Forced : Нет

Аудио #2
Идентификатор : 3
Формат : AC-3
Формат/Информация : Audio Coding 3
Расширение режима : CM (complete main)
Параметр Endianness формата : Big
Идентификатор кодека : A_AC3
Продолжительность : 1 ч. 49 м.
Вид битрейта : Постоянный
Битрейт : 640 Кбит/сек
Каналы : 6 каналов
Расположение каналов : Front: L C R, Side: L R, LFE
Частота : 48,0 КГц
Битовая глубина : 16 бит
Метод сжатия : С потерями
Размер потока : 500 Мбайт (12%)
Язык : English
Default : Нет
Forced : Нет

Текст #1
Идентификатор : 4
Формат : UTF-8
Идентификатор кодека : S_TEXT/UTF8
Идентификатор кодека/Информация : UTF-8 Plain Text
Заголовок : [janetta]
Язык : Russian
Default : Нет
Forced : Нет

Текст #2
Идентификатор : 5
Формат : UTF-8
Идентификатор кодека : S_TEXT/UTF8
Идентификатор кодека/Информация : UTF-8 Plain Text
Язык : English
Default : Нет
Forced : Нет

Текст #3
Идентификатор : 6
Формат : UTF-8
Идентификатор кодека : S_TEXT/UTF8
Идентификатор кодека/Информация : UTF-8 Plain Text
Язык : Spanish
Default : Нет
Forced : Нет

Меню
00:00:00.000 : en:00:00:00.000
00:12:17.737 : en:00:12:17.737
00:20:21.762 : en:00:20:21.762
00:29:19.424 : en:00:29:19.424
00:40:48.321 : en:00:40:48.321
00:53:00.844 : en:00:53:00.844
01:02:15.273 : en:01:02:15.273
01:13:15.433 : en:01:13:15.433
01:20:50.095 : en:01:20:50.095
01:30:06.109 : en:01:30:06.109
01:34:18.695 : en:01:34:18.695
01:45:16.352 : en:01:45:16.352


Третий акт скачать торрент





Скачать Третий акт через торрент http://i49.fastpic.ru/big/2013/0802/8f/62762f4652be7fa44ddc37d170340c8f.jpg Скачать, смотреть онлайн Третий акт бесплантно в хорошем качестве Описание: Знаменитый писатель возвращается в маленький город, в котором стал известным. Здесь он пытается раскрыть талант у одной маленькой ... 10 10 3
Info! Золотая раздача, скачанное не засчитывается.
Торрент: Зарегистрирован [2013-08-02 03:38] · скачан: 27 раз
Статус: √ проверено
Размер: 4.24 GB
Как cкачать? Как скачать Третий акт через торрент | UTorrent

% Раздел Тема Автор DL S | L
Фильмы 2012 [ 1.37 GB ] Волшебство Бэль Айл / Третий акт / The Magic of Belle Isle | | HDRip, DVO Twi7ter Скачать
1 | 0



Последний раз редактировалось: Alexxx5252 (2013-08-12 18:29), всего редактировалось 1 раз

28-11-2019 20:33  


Отключить вcю реклaмy на сайте, в т.ч. и в плеере онлайн просмотра!

02-08-2013 09:05 Третий акт Скачать торрент  

Бюждет 100к. О_о
Фримен теперь за еду работает?))



    Дорогой пользователь! Огромная просьба, поблагодарите релизера, оцените раздачу и оставьте свои комментарий, если Вы скачали Третий акт через торрент бесплатно!!
    Комментировать посты могут только пользователи прошедшие не сложную регистрацию
    Показать сообщения:    


    Третий акт через торрент
    Скачать бесплатно Третий акт
    Третий акт скачать торрент
    Третий акт смотреть онлайн
    Cкачать фильм Третий акт бесплатно
    Третий акт скачать торрент в хорошем качестве
    Третий акт смотреть онлайн бесплатно в хорошем качестве
    Вы не можете начинать темы
    Вы не можете отвечать на сообщения
    Вы не можете редактировать свои сообщения
    Вы не можете удалять свои сообщения
    Вы не можете голосовать в опросах
    Вы не можете прикреплять файлы к сообщениям
    Вы можете скачивать файлы
    Третий акт / The Magic of Belle Isle [2012 г., драма, комедия, BDRip 720p, DVO] смотреть онлайн, скачать торрент picoco.icu