Доктор Стрэндж

Лицензия

Добыча

Дубляж

Уэнсдэй

1 сезон

Тор

Дубляж

В эфире

Дубляж

Там, где раки поют

MVO

Властелин колец

1 сезон

Deluxe

pack

Рекомендуем

30

Пиратка

ВАЖНО

ВАЖНО

Ghostwire

Пиратка

jed

RePack

nioh2

RePack

RDR2

RePack

NEED FOR SPEED™ PAYBACK

RePack

скачать торрент

Кинопоиск HD

Острые козырьки 6 сезон

6 сезон

FAR CRY 6

RePack

скачать торрент

Лицензия

скачать торрент

MVO

1

1 сезон

скачать торрент

1 сезон

скачать торрент

Лицензия

  

9-9-81 / 9-9-81 (Rapeepimon Chaiyasayna) [2012, Таиланд, ужасы, BDRip 720p, Любительский (двухголосый) [den904, DeadSno] ]

9-9-81 через торрент piratbit.org

Размер: 4.08 GB | Добавлен: 9 лет 4 мес. назад | Торрент скачан:44 раза
Смотреть онлайн | Скачать   

02-08-2013 20:07 9-9-81 Скачать торрент  

9-9-81 / 9-9-81


  • Год выпуска:2012
  • Страна:Таиланд
  • Жанр:ужасы
  • Продолжительность: 01:31:31
  • Перевод:Любительский (двухголосый) [den904 & DeadSno], перевод [InterHD & DeadSno], работа со звуком [DeadSno]

  • Субтитры: English
    • Режиссер:Rapeepimon Chaiyasayna

  • В ролях:Patitta Attayatamavitaya, Supachai Girdsuwan (Phoj, The Old Dog), Setsit Limkasitdej (The Bride), Тхити Вачабул
    • Описание:
      Однажды красивая дама Уипаи в своем свадебном платье спрыгнула с крыши 20-этажного дома. Неясно, что побудило ее сделать это, но ясно, что это необычное самоубийство. У него есть связь с другими похожими смертями - также погиб влюбленный в нее мужчина, служанка, близкий друг, живущий по соседству тинейджер, отец, мать, офицер, который поначалу расследовал это дело, ее бойфренд и арендатор.

  • Рейтинг
    imdb.com: 6.40 (28)
    • Качество:BDRip 720p
    • Формат:MKV
    • Видео кодек: AVC
    • Аудио кодек: MP3 -AC3
    • Видео: AVC, 1280x720 (16:9), 5552 kbps, 23,976 fps, 0,251 bpp
    • Аудио №1: русский / MP3 / 2.0 / 48 kHz / 192 kbps / ||
    • Аудио №2: Thai / AC3 / 5.1 / 48 kHz / 640 kbps / 16 bit


    General
    Unique ID : 198963286749948115127375923332607984323 (0x95AEEF67DC69C6D582999A27075D42C3)
    Complete name : D:Торенты9-9-81.2012.L2.BDRip.720p.InterHD.mkv
    Format : Matroska
    Format version : Version 4 / Version 2
    File size : 4.08 GiB
    Duration : 1h 31mn
    Overall bit rate : 6 380 Kbps
    Movie name : InterHD
    Encoded date : UTC 2013-08-02 07:16:55
    Writing application : mkvmerge v6.2.0 ('Promised Land') built on Apr 28 2013 12:22:01
    Writing library : libebml v1.3.0 + libmatroska v1.4.0

    Video
    ID : 1
    Format : AVC
    Format/Info : Advanced Video Codec
    Format profile : High@L4.1
    Format settings, CABAC : Yes
    Format settings, ReFrames : 9 frames
    Codec ID : V_MPEG4/ISO/AVC
    Duration : 1h 31mn
    Bit rate : 5 552 Kbps
    Width : 1 280 pixels
    Height : 720 pixels
    Display aspect ratio : 16:9
    Frame rate : 23.976 fps
    Color space : YUV
    Chroma subsampling : 4:2:0
    Bit depth : 8 bits
    Scan type : Progressive
    Bits/(Pixel*Frame) : 0.251
    Stream size : 3.47 GiB (85%)
    Title : WiKi
    Writing library : x264 core 129 r2245+704+36 8e61944 tMod+MixAQ [8-bit@4:2:0 X86_64]
    Encoding settings : cabac=1 / ref=9 / deblock=1:-3:-3 / analyse=0x3:0x133 / me=umh / subme=11 / psy=1 / fade_compensate=0.00 / psy_rd=1.00:0.10 / mixed_ref=1 / me_range=32 / chroma_me=1 / trellis=2 / 8x8dct=1 / cqm=0 / deadzone=21,11 / fast_pskip=0 / chroma_qp_offset=-3 / threads=18 / lookahead_threads=3 / sliced_threads=0 / nr=0 / decimate=1 / interlaced=0 / bluray_compat=0 / constrained_intra=0 / fgo=0 / bframes=8 / b_pyramid=2 / b_adapt=2 / b_bias=0 / direct=3 / weightb=1 / open_gop=0 / weightp=2 / keyint=250 / keyint_min=23 / scenecut=40 / intra_refresh=0 / rc=2pass / mbtree=0 / bitrate=5552 / ratetol=1.0 / qcomp=0.70 / qpmin=0 / qpmax=69 / qpstep=4 / cplxblur=20.0 / qblur=0.5 / ip_ratio=1.40 / pb_ratio=1.30 / aq=3 / aq-strength=0.90 / aq-sensitivity=10.00 / aq-ifactor=1.00 / aq-pfactor=1.00 / aq-bfactor=1.00 / aq2=0
    Language : Thai
    Default : Yes
    Forced : No
    Matrix coefficients : BT.709-5, BT.1361, IEC 61966-2-4 709, SMPTE RP177

    Audio #1
    ID : 2
    Format : MPEG Audio
    Format version : Version 1
    Format profile : Layer 3
    Mode : Joint stereo
    Codec ID : A_MPEG/L3
    Codec ID/Hint : MP3
    Duration : 1h 31mn
    Bit rate mode : Constant
    Bit rate : 192 Kbps
    Channel(s) : 2 channels
    Sampling rate : 48.0 KHz
    Compression mode : Lossy
    Stream size : 126 MiB (3%)
    Title : DVO [den904 & DeadSno]
    Language : Russian
    Default : Yes
    Forced : No

    Audio #2
    ID : 3
    Format : AC-3
    Format/Info : Audio Coding 3
    Mode extension : CM (complete main)
    Codec ID : A_AC3
    Duration : 1h 31mn
    Bit rate mode : Constant
    Bit rate : 640 Kbps
    Channel(s) : 6 channels
    Channel positions : Front: L C R, Side: L R, LFE
    Sampling rate : 48.0 KHz
    Bit depth : 16 bits
    Compression mode : Lossy
    Stream size : 419 MiB (10%)
    Language : Thai
    Default : No
    Forced : No

    Text
    ID : 4
    Format : UTF-8
    Codec ID : S_TEXT/UTF8
    Codec ID/Info : UTF-8 Plain Text
    Language : English
    Default : No
    Forced : No

    Menu
    00:00:00.000 : en:
    00:03:42.805 : en:
    00:12:07.184 : en:
    00:22:01.570 : en:
    00:30:24.113 : en:
    00:39:13.434 : en:
    00:49:22.501 : en:
    00:58:45.772 : en:
    01:07:42.391 : en:
    01:17:23.722 : en:
    01:28:29.637 : en:


    © Оформление by Vetal



  • Скачать 9-9-81 через торрент https://pic1.kartinco.top/images/23/t1tl3p57mv.png Скачать, смотреть онлайн 9-9-81 бесплантно в хорошем качестве Описание:Однажды красивая дама Уипаи в своем свадебном платье спрыгнула с крыши 20-этажного дома. Неясно, что побудило ее сделать это, но ... 7.8 10 8
    Info! Золотая раздача, скачанное не засчитывается.
    Торрент: Зарегистрирован [2013-08-02 20:07] · скачан: 44 раз
    Статус: √ проверено
    Размер: 4.08 GB
    Как cкачать? Как скачать 9-9-81 через торрент | UTorrent

    % Раздел Тема Автор DL S | L
    Азиатские фильмы [ 1.37 GB ] 9-9-81 / 9-9-81 | | HDRip, Любительский (двухголосый Ворон Скачать
    1 | 0

    28-11-2019 20:33  


    Отключить вcю реклaмy на сайте, в т.ч. и в плеере онлайн просмотра!

      Дорогой пользователь! Огромная просьба, поблагодарите релизера, оцените раздачу и оставьте свои комментарий, если Вы скачали 9-9-81 через торрент бесплатно!!
      Комментировать посты могут только пользователи прошедшие не сложную регистрацию
      Показать сообщения:    


      9-9-81 через торрент
      Скачать бесплатно 9-9-81
      9-9-81 скачать торрент
      9-9-81 смотреть онлайн
      Cкачать фильм 9-9-81 бесплатно
      9-9-81 скачать торрент в хорошем качестве
      9-9-81 смотреть онлайн бесплатно в хорошем качестве
      Вы не можете начинать темы
      Вы не можете отвечать на сообщения
      Вы не можете редактировать свои сообщения
      Вы не можете удалять свои сообщения
      Вы не можете голосовать в опросах
      Вы не можете прикреплять файлы к сообщениям
      Вы можете скачивать файлы
      9-9-81 / 9-9-81 [2012, Таиланд, ужасы, BDRip 720p, Любительский [den904, DeadSno] ] смотреть онлайн, скачать торрент picoco.icu