Ссылка на приватное зеркало нашего сайта всего за 1$. Внимание количество ограничено!!!

2 сезон

iTunes

iTunes

1

iTunes

iTunes

iTunes

WEBRip

iTunes

30
pack

Вам бонус

ВАЖНО

!!Акция!!

Alien_RageХит недели

RePack

Horizon Zero Dawn

ИГРА 18+

pack

RePack

jed

!!Акция!!

Alien_Rage

RePack

fifa19

RePack

Assassins Creed: Odyssey

RePack

NEED FOR SPEED™ PAYBACK

4 сезон

9 сезон

Бесстыжие 9 сезон

Все сериалы

все сериалы на PB.wtf

RePack

FAR CRY 5
  

Нас приняли! / Accepted (Стив Пинк) [2006 г., комедия, HDRip, Дубляж, лицензия] piratbit.org

Нас приняли! через торрент piratbit.org

Размер: 1.37 GB | Добавлен: 7 лет 1 мес. назад | Торрент скачан:371 раз
Скачать  

06-08-2013 06:23 Нас приняли! Скачать торрент  

Нас приняли! / Accepted
Год выпуска: 2006
Страна: США
Жанр: комедия,
Продолжительность: 01:33:05
Перевод: Дубляж, Лицензия

Режиссер: Стив Пинк
Продюссер: Майкл Бостик, Луис Дж. Фридман, Брайан Лутс
Сценарий: Адам Купер, Билл Колладж, Марк Перез

Бюджет: $23 000 000
Премьера в мире: 18 августа 2006

В ролях:
Джастин Лонг Джона Хилл Адам Хершман Коламбус Шорт Мария Тэйер Льюис Блэк Блейк Лайвли Марк Дервин Энн Кьюсак Ханна Маркс,

Описание: Выпускник средней школы Бартлби Гейнс получил восьмой отказ о приеме в институт, что, конечно, вряд ли устроит его родителей. К счастью, он не один такой. Несколько друзей-одноклассников стоят перед той же проблемой.

Так как же парень с унылой перспективой сможет успокоить родителей и добиться расположения красотки Моники? Просто. Он откроет свой собственный университет…

Качество: HDRip AVC
Формат: MKV
Видео кодек: х264
Аудио кодек: AC3
Видео: х264, 720x304 (2.35:1), 23.976 fps, 1 715 Kbps (0.327 bit/pixel)
Аудио#1: AC-3, 48.0 KHz, 6 ch, 384 Kbps, CBR

General
Unique ID : 245456220615563476282446778661177346939 (0xB8A9260630D4E560A4B23EFD015B4B7B)
Complete name : D:x264Nas.prinyali.2006.D.x264.HDRip.Rus.1400MB.mkv
Format : Matroska
Format version : Version 2
File size : 1.37 GiB
Duration : 1h 33mn
Overall bit rate : 2 100 Kbps
Encoded date : UTC 2013-08-05 22:42:41
Writing application : mkvmerge v6.2.0 ('Promised Land') built on Apr 28 2013 12:22:01
Writing library : libebml v1.3.0 + libmatroska v1.4.0

Video
ID : 1
Format : AVC
Format/Info : Advanced Video Codec
Format profile : High@L4.1
Format settings, CABAC : Yes
Format settings, ReFrames : 9 frames
Codec ID : V_MPEG4/ISO/AVC
Duration : 1h 33mn
Bit rate : 1 715 Kbps
Width : 720 pixels
Height : 304 pixels
Display aspect ratio : 2.35:1
Frame rate mode : Constant
Frame rate : 23.976 fps
Color space : YUV
Chroma subsampling : 4:2:0
Bit depth : 8 bits
Scan type : Progressive
Bits/(Pixel*Frame) : 0.327
Stream size : 1.09 GiB (80%)
Writing library : x264 core 133 r2334 a3ac64b
Encoding settings : cabac=1 / ref=9 / deblock=1:-3:-3 / analyse=0x3:0x113 / me=umh / subme=7 / psy=1 / psy_rd=1.00:0.15 / mixed_ref=1 / me_range=32 / chroma_me=1 / trellis=1 / 8x8dct=1 / cqm=0 / deadzone=21,11 / fast_pskip=1 / chroma_qp_offset=-2 / threads=6 / lookahead_threads=1 / sliced_threads=0 / nr=0 / decimate=1 / interlaced=0 / bluray_compat=0 / constrained_intra=0 / bframes=3 / b_pyramid=2 / b_adapt=1 / b_bias=0 / direct=1 / weightb=1 / open_gop=0 / weightp=2 / keyint=240 / keyint_min=22 / scenecut=40 / intra_refresh=0 / rc_lookahead=40 / rc=2pass / mbtree=1 / bitrate=1715 / ratetol=1.0 / qcomp=0.60 / qpmin=10 / qpmax=51 / qpstep=4 / cplxblur=20.0 / qblur=0.5 / vbv_maxrate=50000 / vbv_bufsize=62500 / nal_hrd=none / ip_ratio=1.40 / aq=1:1.00
Default : Yes
Forced : No

Audio
ID : 2
Format : AC-3
Format/Info : Audio Coding 3
Mode extension : CM (complete main)
Format settings, Endianness : Big
Codec ID : A_AC3
Duration : 1h 33mn
Bit rate mode : Constant
Bit rate : 384 Kbps
Channel(s) : 6 channels
Channel positions : Front: L C R, Side: L R, LFE
Sampling rate : 48.0 KHz
Bit depth : 16 bits
Compression mode : Lossy
Stream size : 256 MiB (18%)
Default : Yes
Forced : No
piratbit.org



Скачать Нас приняли! через торрент http://i12.fastpic.ru/big/2010/1111/f4/a0ec04cb1b7b93c652015204bd3b93f4.jpg Скачать фильм Нас приняли! через торрент бесплантно в хорошем качестве Описание: Выпускник средней школы Бартлби Гейнс получил восьмой отказ о приеме в институт, что, конечно, вряд ли устроит его родителей. К ... 9.6 10 15
Info! Золотая раздача, скачанное не засчитывается.
Торрент: Зарегистрирован [2013-08-06 06:23] · скачан: 371 раз
Статус: √ проверено
Размер: 1.37 GB
Как cкачать? Как скачать Нас приняли! через торрент | qTorrent

% Раздел Тема Автор DL S | L
# Фильмы 2006-2008 [ 4.23 GB ] Нас приняли! / Accepted [2006 BDRip 1080p [ - ] flatro1 Скачать
1 | 0
Фильмы 2006-2008 [ 1.45 GB ] Нас приняли! / Accepted [2006 DVDRip лицензия] Anonymous Скачать
1 | 0
Видео для КПК и Смартфонов [ 306 MB ] Нас Приняли / Accepted [2006 пародия DVDRip MVO лицензия] byblackmexx Скачать
1 | 0
Фильмы 2006-2008 [ 1.45 GB ] Нас приняли! / Accepted [2006 ... HDRip] marrio Скачать
1 | 0

28-11-2019 20:33  

Отключить всю рекламу на сайте

06-08-2013 11:57 Нас приняли! Скачать торрент  

классный фильм, всем советую!)) как раз пока ничего нового нету можно пересмотреть и поугарать))piratbit.org



15-09-2013 23:50 Нас приняли! Скачать торрент  

Эххх, утопия...piratbit.org



    Дорогой пользователь! Огромная просьба, поблагодарите релизера, оцените раздачу и оставьте свои комментарий, если Вы скачали Нас приняли! через торрент бесплатно! Внесите свою лепту в развитие PiratBit!
    Комментировать посты могут только пользователи прошедшие не сложную регистрацию
    Показать сообщения:    

    Нас приняли! через торрент
    Скачать бесплатно Нас приняли!
    Нас приняли! скачать торрент
    Нас приняли! смотреть онлайн
    Cкачать фильм Нас приняли! бесплатно
    Нас приняли! скачать торрент в хорошем качестве
    Нас приняли! смотреть онлайн бесплатно в хорошем качестве


    Вы не можете начинать темы
    Вы не можете отвечать на сообщения
    Вы не можете редактировать свои сообщения
    Вы не можете удалять свои сообщения
    Вы не можете голосовать в опросах
    Вы не можете прикреплять файлы к сообщениям
    Вы можете скачивать файлы