Достать ножи: Стеклянная луковица

MVO

Добыча

Дубляж

Уэнсдэй

1 сезон

Тор

Дубляж

13 клиническая

1 сезон

Жестокая ночь

MVO

Одни из нас

1 сезон

Deluxe

pack

Рекомендуем

30

Пиратка

ВАЖНО

ВАЖНО

Ghostwire

Пиратка

jed

RePack

nioh2

RePack

RDR2

RePack

NEED FOR SPEED™ PAYBACK

RePack

скачать торрент

Кинопоиск HD

Острые козырьки 6 сезон

6 сезон

FAR CRY 6

RePack

скачать торрент

Лицензия

скачать торрент

MVO

1

1 сезон

скачать торрент

1 сезон

скачать торрент

Лицензия

  

Миллион для чайников / The Brass Teapot (Рамаа Мосли / Ramaa Mosley) [2012, США, фэнтези, триллер, комедия, BD Remux, 1080p, MVO|лицензия| ]

Миллион для чайников через торрент piratbit.org

Размер: 25.38 GB | Добавлен: 9 лет 5 мес. назад | Торрент скачан:28 раз
Смотреть онлайн | Скачать | Поддержите нас   

06-08-2013 22:40 Миллион для чайников Скачать торрент  


Миллион для чайников / The Brass Teapot

«Всё, что не убьёт тебя, сделает богаче»

  • Год выпуска:2012
  • Страна:США
  • Жанр:фэнтези, триллер, комедия
  • Продолжительность: 01:41:29
  • Перевод:Профессиональный (многоголосый, закадровый)|Лицензия|

  • Субтитры: Русский, английский
    • Режиссер:Рамаа Мосли / Ramaa Mosley

  • В ролях:Джуно Темпл (Alice), Майкл Ангарано (John), Алексис Бледел (Payton), Билли Магнуссен (Arnie), Алиа Шокат (Louise), Бобби Мойнихэн мл. (Chuck), Стив Парк (Dr. Ling), Бен Раппапорт (Ricky), Люси Уолтерс (Mary), Джек МакБрайер (Joe), Дебра Монк (Trudy), Майкл Делани (Mr. Tutor)
    • Описание:
      Признайтесь, каждому бы хотелось иметь волшебный чайник под кроватью, который выдает по первому требованию наличные?!
      Но кто знает, через что должен пройти миллионер? Богатые тоже плачут, ведь чайник производит деньги, как только кто-то из окружающих чувствует боль.
      Как далеко готовы зайти ради денег молодожены Джон и Эллис в погоне за богатством?

  • Рейтинг
    kinopoisk.ru: 6.205 (3321)
    imdb.com: 6.10 (3 949)
    MPAA: R - Лицам до 17 лет обязательно присутствие взрослого
    • Качество:BD Remux
    • Формат:MKV
    • Видео кодек: AVC
    • Аудио кодек:DTS- AC3
    • Видео: AVC, 1920x1080 (16:9), 32893 kbps, 23,976 fps, 0,662 bpp
    • Аудио №1: русский / AC3 / 5.1 / 48 kHz / 448 kbps / 16 bit || [Русский - многоголосый закадровый]
    • Аудио №2: английский / DTS-HD / 5.1 / 48 kHz / 1560 kbps / 24 bit (Core: 5.1 / 48 kHz / 1510 kbps / 24 bit)
    • Аудио №3: английский / AC3 / 2.0 / 48 kHz / 192 kbps / 16 bit- [Английский - комментарий]

    General
    Unique ID : 212626384924866677491659497689442991742 (0x9FF65A27C56F114CBE734743515CBE7E)
    Complete name : D:ТорентыМиллион.для.чайников-The.Brass.Teapot.(2012).BDRemux.[1080p].mkv
    Format : Matroska
    Format version : Version 2
    File size : 25.4 GiB
    Duration : 1h 41mn
    Overall bit rate mode : Variable
    Overall bit rate : 35.8 Mbps
    Movie name : Lelya_K for
    Encoded date : UTC 2013-07-19 11:28:52
    Writing application : mkvmerge v5.7.0 ('The Whirlwind') built on Aug 7 2012 14:11:40
    Writing library : libebml v1.2.3 + libmatroska v1.3.0

    Video
    ID : 1
    Format : AVC
    Format/Info : Advanced Video Codec
    Format profile : High@L4.1
    Format settings, CABAC : Yes
    Format settings, ReFrames : 4 frames
    Codec ID : V_MPEG4/ISO/AVC
    Duration : 1h 41mn
    Bit rate mode : Variable
    Bit rate : 32.9 Mbps
    Maximum bit rate : 35.0 Mbps
    Width : 1 920 pixels
    Height : 1 080 pixels
    Display aspect ratio : 16:9
    Frame rate : 23.976 fps
    Color space : YUV
    Chroma subsampling : 4:2:0
    Bit depth : 8 bits
    Scan type : Progressive
    Bits/(Pixel*Frame) : 0.662
    Stream size : 23.3 GiB (92%)
    Title : Миллион.для.чайников-The.Brass.Teapot.(2012).BDRemux.[1080p]
    Language : English
    Default : Yes
    Forced : No

    Audio #1
    ID : 2
    Format : AC-3
    Format/Info : Audio Coding 3
    Mode extension : CM (complete main)
    Codec ID : A_AC3
    Duration : 1h 41mn
    Bit rate mode : Constant
    Bit rate : 448 Kbps
    Channel(s) : 6 channels
    Channel positions : Front: L C R, Side: L R, LFE
    Sampling rate : 48.0 KHz
    Bit depth : 16 bits
    Compression mode : Lossy
    Stream size : 325 MiB (1%)
    Title : AC3 5.1 / 448 kbps
    Language : Russian
    Default : Yes
    Forced : No

    Audio #2
    ID : 3
    Format : DTS
    Format/Info : Digital Theater Systems
    Format profile : MA / Core
    Codec ID : A_DTS
    Duration : 1h 41mn
    Bit rate mode : Variable
    Bit rate : 1 561 Kbps / 1 510 Kbps
    Channel(s) : 6 channels
    Channel positions : Front: L C R, Side: L R, LFE
    Sampling rate : 48.0 KHz
    Bit depth : 24 bits
    Compression mode : Lossless / Lossy
    Title : DTS-HD MA 5.1 / 3357 kbps
    Language : English
    Default : No
    Forced : No

    Audio #3
    ID : 4
    Format : AC-3
    Format/Info : Audio Coding 3
    Mode extension : C (commentary)
    Codec ID : A_AC3
    Duration : 1h 41mn
    Bit rate mode : Constant
    Bit rate : 192 Kbps
    Channel(s) : 2 channels
    Channel positions : Front: L R
    Sampling rate : 48.0 KHz
    Bit depth : 16 bits
    Compression mode : Lossy
    Stream size : 139 MiB (1%)
    Title : Commentary
    Language : English
    Default : No
    Forced : No

    Text #1
    ID : 5
    Format : UTF-8
    Codec ID : S_TEXT/UTF8
    Codec ID/Info : UTF-8 Plain Text
    Language : Russian
    Default : No
    Forced : No

    Text #2
    ID : 6
    Format : UTF-8
    Codec ID : S_TEXT/UTF8
    Codec ID/Info : UTF-8 Plain Text
    Language : English
    Default : No
    Forced : No

    Menu
    00:00:00.000 : en:Chapter 1
    00:09:00.706 : en:Chapter 2
    00:17:34.803 : en:Chapter 3
    00:26:13.697 : en:Chapter 4
    00:35:37.343 : en:Chapter 5
    00:43:47.374 : en:Chapter 6
    00:51:37.010 : en:Chapter 7
    01:01:01.991 : en:Chapter 8
    01:11:11.809 : en:Chapter 9
    01:17:19.509 : en:Chapter 10
    01:26:29.142 : en:Chapter 11
    01:36:37.374 : en:Chapter 12


    © Оформление by Vetal



  • Скачать Миллион для чайников через торрент http://i3-imageban-ru.translate.goog/out/2013/08/07/5e329c021bbfe47e3d4527d8f2449cfc.png Скачать, смотреть онлайн Миллион для чайников бесплантно в хорошем качестве Описание:Признайтесь, каждому бы хотелось иметь волшебный чайник под кроватью, который выдает по первому требованию наличные?!Но кто знает, ... 10 10 1
    Info! Золотая раздача, скачанное не засчитывается.
    Торрент: Зарегистрирован [2013-08-06 22:40] · скачан: 28 раз
    Статус: √ проверено
    Размер: 25.38 GB
    Как cкачать? Как скачать Миллион для чайников через торрент | UTorrent

    % Раздел Тема Автор DL S | L
    Фильмы (DVD фильмы) [ 3.8 GB ] Миллион для чайников / The Brass Teapot | | Миллион для чайников / The Brass Teapot (Рамаа Мосли / Ramaa Mosley voovaz Скачать
    1 | 0

    28-11-2019 20:33  


    Отключить вcю реклaмy на сайте, в т.ч. и в плеере онлайн просмотра!

    07-08-2013 20:08 Миллион для чайников Скачать торрент  

    Фильм улетный смотрится на одном дыхание .



      Дорогой пользователь! Огромная просьба, поблагодарите релизера, оцените раздачу и оставьте свои комментарий, если Вы скачали Миллион для чайников через торрент бесплатно!!
      Комментировать посты могут только пользователи прошедшие не сложную регистрацию
      Показать сообщения:    


      Миллион для чайников через торрент
      Скачать бесплатно Миллион для чайников
      Миллион для чайников скачать торрент
      Миллион для чайников смотреть онлайн
      Cкачать фильм Миллион для чайников бесплатно
      Миллион для чайников скачать торрент в хорошем качестве
      Миллион для чайников смотреть онлайн бесплатно в хорошем качестве
      Вы не можете начинать темы
      Вы не можете отвечать на сообщения
      Вы не можете редактировать свои сообщения
      Вы не можете удалять свои сообщения
      Вы не можете голосовать в опросах
      Вы не можете прикреплять файлы к сообщениям
      Вы можете скачивать файлы
      Миллион для чайников / The Brass Teapot [2012, США, фэнтези, триллер, комедия, BD Remux, 1080p, MVO|лицензия| ] смотреть онлайн, скачать торрент picoco.icu