Достать ножи: Стеклянная луковица

MVO

Добыча

Дубляж

Уэнсдэй

1 сезон

Тор

Дубляж

13 клиническая

1 сезон

Жестокая ночь

MVO

Одни из нас

1 сезон

Deluxe

pack

Рекомендуем

30

Пиратка

ВАЖНО

ВАЖНО

Ghostwire

Пиратка

jed

RePack

nioh2

RePack

RDR2

RePack

NEED FOR SPEED™ PAYBACK

RePack

скачать торрент

Кинопоиск HD

Острые козырьки 6 сезон

6 сезон

FAR CRY 6

RePack

скачать торрент

Лицензия

скачать торрент

MVO

1

1 сезон

скачать торрент

1 сезон

скачать торрент

Лицензия

  

Хищник / Predator (Джон Мактирнан / John McTiernan) [1987 г., Фантастика, Боевик, Триллер, Приключения, BD Remux] [Ultimate Hunter Edition] Дубляж+MVO

Хищник через торрент piratbit.org

Размер: 33.78 GB | Добавлен: 8 лет 4 мес. назад | Торрент скачан:95 раз
Смотреть онлайн | Скачать | Поддержите нас   

10-08-2013 18:38 Хищник Скачать торрент  

Хищник / Predator

«In this movie, Arnold will experience every meaning of the word '' Pain ''.»

  • Год выпуска:1987
  • Страна:США
  • Жанр:фантастика, боевик, приключения
  • Продолжительность: 01:46:35
  • Перевод:Профессиональный (полное дублирование)+Профессиональный (многоголосый, закадровый) «Киномания»

  • Субтитры: Russian, Latvian, Lithuanian
    • Режиссер:Джон МакТирнан / John McTiernan

  • В ролях:Арнольд Шварценеггер (Dutch), Карл Уэзерс (Dillon), Элпидия Каррильо (Anna), Билл Дьюк (Mac), Джесси Вентура (Blain), Сонни Лэндэм (Billy), Ричард Чавес (Poncho), Р.Г. Армстронг (General Phillips), Шейн Блэк (Hawkins), Кевин Питер Холл (The Predator / Helicopter Pilot), Стив Бойум (Hostage Executed by the Russian, в титрах не указан), Уильям Х. Бертон (Guerilla Soldier Shot Down from Tree, в титрах не указан)
    • Описание:
      Американский вертолет был сбит партизанами в Южной Америке. Оставшийся в живых экипаж находится в плену. Центральное разведывательное управление США бросает свои лучшие силы для освобождения американских граждан.
      Элитная группа спецназа во главе с Датчем была заброшена в южноамериканские джунгли.

  • Рейтинг
    kinopoisk.ru: 8.084 (45 242)
    imdb.com: 7.80 (187 842)
    MPAA: R - Лицам до 17 лет обязательно присутствие взрослого
    • Качество:BD Remux
    • Формат:BDAV
    • Видео кодек:AVC
    • Аудио кодек: DTS-AC3
    • Видео: AVC, 1920x1080 (16:9), 39446 kbps, 23,976 fps, 0,793 bpp
    • Аудио №1: русский / DTS / 5.1 / 48 kHz / 755 kbps / 24 bit || [Дубляж]
    • Аудио №2: русский / DTS-HD / 5.1 / 48 kHz / 1560 kbps / 24 bit (Core: 5.1 / 48 kHz / 1510 kbps / 24 bit) || [MVO]
    • Аудио №3: английский / DTS-HD / 5.1 / 48 kHz / 1560 kbps / 24 bit (Core: 5.1 / 48 kHz / 1510 kbps / 24 bit)
    • Аудио №4: английский / AC3 / 2.0 / 48 kHz / 224 kbps / 16 bit
    DISC INFO: Predator.1987.-.PGor.-.(BD-Remux.1080p.MPEG-4.AVC.Russian.English.DTS-HD.MA-5.1.Sub)
    Disc Title:
    Disc Size: 36 266 728 436 bytes
    Protection: AACS
    BD-Java: No
    BDInfo: 0.5.3
    PLAYLIST REPORT:
    Name: 00001.MPLS
    Length: 1:46:35 (h:m:s)
    Size: 36 266 631 168 bytes
    Total Bitrate: 45,36 Mbps
    VIDEO:
    Codec Bitrate Description
    ----- ------- -----------
    MPEG-4 AVC Video 32728 kbps 1080p / 23,976 fps / 16:9 / High Profile 4.1
    AUDIO:
    Codec Language Bitrate Description
    ----- -------- ------- -----------
    DTS-HD Master Audio English 4530 kbps 5.1 / 48 kHz / 4530 kbps / 24-bit (DTS Core: 5.1 / 48 kHz / 1509 kbps / 24-bit)
    DTS-HD Master Audio Russian 4537 kbps 5.1 / 48 kHz / 4537 kbps / 24-bit (DTS Core: 5.1 / 48 kHz / 1509 kbps / 24-bit)
    DTS Audio Russian 768 kbps 5.1 / 48 kHz / 768 kbps / 24-bit
    Dolby Digital Audio English 224 kbps 2.0 / 48 kHz / 224 kbps / DN -4dB
    SUBTITLES:
    Codec Language Bitrate Description
    ----- -------- ------- -----------
    Presentation Graphics English 55,310 kbps
    Presentation Graphics English 12,581 kbps
    Presentation Graphics Estonian 9,398 kbps
    Presentation Graphics Latvian 9,164 kbps
    Presentation Graphics Lithuanian 9,208 kbps
    Presentation Graphics Russian 10,406 kbps

    General
    ID : 1 (0x1)
    Complete name : D:ТорентыPredator.1987.-.PGor.-.(BD-Remux.1080p.MPEG-4.AVC.Russian.English.DTS-HD.MA-5.1.Sub)BDMVSTREAM�0001.m2ts
    Format : BDAV
    Format/Info : Blu-ray Video
    File size : 33.8 GiB
    Duration : 1h 46mn
    Overall bit rate mode : Variable
    Overall bit rate : 45.4 Mbps
    Maximum Overall bit rate : 35.5 Mbps

    Video
    ID : 4113 (0x1011)
    Menu ID : 1 (0x1)
    Format : AVC
    Format/Info : Advanced Video Codec
    Format profile : High@L4.1
    Format settings, CABAC : Yes
    Format settings, ReFrames : 4 frames
    Codec ID : 27
    Duration : 1h 46mn
    Bit rate mode : Variable
    Bit rate : 39.4 Mbps
    Maximum bit rate : 34.0 Mbps
    Width : 1 920 pixels
    Height : 1 080 pixels
    Display aspect ratio : 16:9
    Frame rate : 23.976 fps
    Color space : YUV
    Chroma subsampling : 4:2:0
    Bit depth : 8 bits
    Scan type : Progressive
    Bits/(Pixel*Frame) : 0.793
    Stream size : 29.4 GiB (87%)
    Color primaries : BT.709-5, BT.1361, IEC 61966-2-4, SMPTE RP177
    Transfer characteristics : BT.709-5, BT.1361
    Matrix coefficients : BT.709-5, BT.1361, IEC 61966-2-4 709, SMPTE RP177

    Audio #1
    ID : 4352 (0x1100)
    Menu ID : 1 (0x1)
    Format : DTS
    Format/Info : Digital Theater Systems
    Codec ID : 130
    Duration : 1h 46mn
    Bit rate mode : Constant
    Bit rate : 755 Kbps
    Channel(s) : 6 channels
    Channel positions : Front: L C R, Side: L R, LFE
    Sampling rate : 48.0 KHz
    Bit depth : 24 bits
    Compression mode : Lossy
    Stream size : 575 MiB (2%)
    Language : Russian

    Audio #2
    ID : 4353 (0x1101)
    Menu ID : 1 (0x1)
    Format : DTS
    Format/Info : Digital Theater Systems
    Format profile : MA / Core
    Muxing mode : Stream extension
    Codec ID : 134
    Duration : 1h 46mn
    Bit rate mode : Variable
    Bit rate : 1 561 Kbps / 1 510 Kbps
    Channel(s) : 6 channels
    Channel positions : Front: L C R, Side: L R, LFE
    Sampling rate : 48.0 KHz
    Bit depth : 24 bits
    Compression mode : Lossless / Lossy
    Language : Russian

    Audio #3
    ID : 4354 (0x1102)
    Menu ID : 1 (0x1)
    Format : DTS
    Format/Info : Digital Theater Systems
    Format profile : MA / Core
    Muxing mode : Stream extension
    Codec ID : 134
    Duration : 1h 46mn
    Bit rate mode : Variable
    Bit rate : 1 561 Kbps / 1 510 Kbps
    Channel(s) : 6 channels
    Channel positions : Front: L C R, Side: L R, LFE
    Sampling rate : 48.0 KHz
    Bit depth : 24 bits
    Compression mode : Lossless / Lossy
    Language : English

    Audio #4
    ID : 4355 (0x1103)
    Menu ID : 1 (0x1)
    Format : AC-3
    Format/Info : Audio Coding 3
    Mode extension : CM (complete main)
    Codec ID : 129
    Duration : 1h 46mn
    Bit rate mode : Constant
    Bit rate : 224 Kbps
    Channel(s) : 2 channels
    Channel positions : Front: L R
    Sampling rate : 48.0 KHz
    Bit depth : 16 bits
    Compression mode : Lossy
    Stream size : 171 MiB (0%)
    Language : English

    Text #1
    ID : 4608 (0x1200)
    Menu ID : 1 (0x1)
    Format : PGS
    Codec ID : 144
    Language : Russian

    Text #2
    ID : 4610 (0x1202)
    Menu ID : 1 (0x1)
    Format : PGS
    Codec ID : 144
    Language : Latvian

    Text #3
    ID : 4611 (0x1203)
    Menu ID : 1 (0x1)
    Format : PGS
    Codec ID : 144
    Language : Lithuanian


    © Оформление by Vetal



  • Скачать Хищник через торрент http://s016.radikal.ru/i335/1409/6a/99ddc4253d7c.gif Скачать, смотреть онлайн Хищник бесплантно в хорошем качестве Описание:Американский вертолет был сбит партизанами в Южной Америке. Оставшийся в живых экипаж находится в плену. Центральное ... 9.7 10 25
    Info! Золотая раздача, скачанное не засчитывается.
    Торрент: Зарегистрирован [2014-09-12 04:42] · скачан: 95 раз
    Статус: √ проверено
    Размер: 33.78 GB
    Как cкачать? Как скачать Хищник через торрент | UTorrent




    Последний раз редактировалось: Ворон (2014-09-12 04:58), всего редактировалось 3 раз(а)

    28-11-2019 20:33  


    Отключить вcю реклaмy на сайте, в т.ч. и в плеере онлайн просмотра!

    11-08-2013 09:39 Хищник Скачать торрент  

    ГАВРИЛОВА ЗАБЫЛ ВЫЛОЖИТЬ?????БЕЗ НЕГО ФИЛЬМ УТОПИЯ!!!ЛУЧШЕ УЖ НА РОДНОМ-ЧЕМ НА ПРИДУРКАХ ГОСУДАРСТВЕННЫХ!!!



    11-08-2013 14:09 Хищник Скачать торрент  

    Улыбнуло, чувак с разорванной грудью лежит мертвый но при этом глаза явно видно как шевеляться..
    Смотрел этот фильм очень давно по телеку, пересмотрел в даном качестве получил огромное удовольствие от просмотра, это надо смотреть качество супер. Фильм классика жанра про такие говорят на века..наверное один из лучших шварца)))



      Дорогой пользователь! Огромная просьба, поблагодарите релизера, оцените раздачу и оставьте свои комментарий, если Вы скачали Хищник через торрент бесплатно!!
      Комментировать посты могут только пользователи прошедшие не сложную регистрацию
      Показать сообщения:    


      Хищник через торрент
      Скачать бесплатно Хищник
      Хищник скачать торрент
      Хищник смотреть онлайн
      Cкачать фильм Хищник бесплатно
      Хищник скачать торрент в хорошем качестве
      Хищник смотреть онлайн бесплатно в хорошем качестве
      Вы не можете начинать темы
      Вы не можете отвечать на сообщения
      Вы не можете редактировать свои сообщения
      Вы не можете удалять свои сообщения
      Вы не можете голосовать в опросах
      Вы не можете прикреплять файлы к сообщениям
      Вы можете скачивать файлы
      Хищник / Predator [1987 г., Фантастика, Боевик, Триллер, Приключения, BD Remux] [Ultimate Hunter Edition] Дубляж+MVO смотреть онлайн, скачать торрент picoco.icu