1 сезон

1 сезон

iTunes

1

iTunes

Кинопоиск HD

iTunes

13

1 сезон

RePack

30

Deluxe

ВАЖНО

ИГРА 18+

pack

RePack

MK11
pack

Легкие деньги

RePack

jed

RePack

fifa19

RePack

RDR2

RePack

NEED FOR SPEED™ PAYBACK

4 сезон

9 сезон

Бесстыжие 9 сезон

Все сериалы

все сериалы на PB.wtf

RePack

FAR CRY 5
  
Magnet ссылка

Пришельцы в Америке / Just Visiting (Жан-Мари Пуарэ / Jean-Marie Poire) [2001, США, Франция, комедия, DVDRip] DUB piratbit.org

Пришельцы в Америке через торрент piratbit.org

Размер: 744 MB | Добавлен: 7 лет 9 мес. назад | Торрент скачан:40 раз
Скачать  

11-08-2013 09:18 Пришельцы в Америке Скачать торрент  

Пришельцы в Америке / Just Visiting
Год выпуска: 2001
Страна: CША, Франция
Жанр: Комедия
Продолжительность: 01:24:26
Перевод: Профессиональный (полное дублирование)
Русские субтитры: нет

Режиссер: Жан-Мари Пуарэ / Jean-Marie Poire

В ролях: Жан Рено, Кристиан Клавье, Кристина Эпплгэйт, Мэттью Росс, Тэра Рид, Бриджитт Уилсон

Описание: Два чудака из средневековой Франции, виконт Тибо и его слуга Андре, покорившие зрителей всего мира в легендарных комедиях "Коридоры времени" и "Коридоры времени 2", снова на экране! На этот раз двум героям предстоит отправиться в современные Соединенные Штаты Америки, чтобы в результате спасти от смерти возлюбленную Тибо Розалинд. В Штатах благородный рыцарь и его слуга попадают в такое количество сумасбродных и безумно смешных ситуаций, что их хватило бы на целую дюжину комедий...


Качество: DVDRip
Формат: AVI
Видео кодек: XviD
Аудио кодек: MP3
Видео: 688x288 (2.39:1), 25 fps, XviD build 50 ~1094 kbps avg, 0.22 bit/pixel
Аудио: 48 kHz, MPEG Layer 3, 2 ch, ~128.00 kbps avg
Раздача от:
D:JUST_VISITING_DVDRip.745mb.by_dexter_lex.avi
General
Complete name : D:JUST_VISITING_DVDRip.745mb.by_dexter_lex.avi
Format : AVI
Format/Info : Audio Video Interleave
File size : 744 MiB
Duration : 1h 24mn
Overall bit rate : 1 232 Kbps
Writing application : VirtualDubMod 1.5.10.3 | www.virtualdub-fr.org || (build 2550/release)
Writing library : VirtualDubMod build 2550/release
Video #0
ID : 0
Format : MPEG-4 Visual
Format profile : Advanced Simple@L5
Format settings, BVOP : 1
Format settings, QPel : No
Format settings, GMC : No warppoints
Format settings, Matrix : Custom
Codec ID : XVID
Codec ID/Hint : XviD
Duration : 1h 24mn
Bit rate : 1 095 Kbps
Width : 688 pixels
Height : 288 pixels
Display aspect ratio : 2.40:1
Frame rate : 25.000 fps
Color space : YUV
Chroma subsampling : 4:2:0
Bit depth : 8 bits
Scan type : Progressive
Compression mode : Lossy
Bits/(Pixel*Frame) : 0.221
Stream size : 661 MiB (89%)
Writing library : XviD 50
Audio #1
ID : 1
Format : MPEG Audio
Format version : Version 1
Format profile : Layer 3
Codec ID : 55
Codec ID/Hint : MP3
Duration : 1h 24mn
Bit rate mode : Constant
Bit rate : 128 Kbps
Channel(s) : 2 channels
Sampling rate : 48.0 KHz
Compression mode : Lossy
Stream size : 77.3 MiB (10%)
Alignment : Aligned on interleaves
Interleave, duration : 40 ms (1.00 video frame)
Interleave, preload duration : 504 ms
Writing library : LAME3.99r
Encoding settings : -m s -V 4 -q 2 -lowpass 17 -b 128
piratbit.org



Скачать Пришельцы в Америке через торрент http://i33.fastpic.ru/big/2013/0811/d2/410046ad40a985fa7c4ec0fafed524d2.jpg Скачать фильм Пришельцы в Америке через торрент бесплантно в хорошем качестве Описание: Два чудака из средневековой Франции, виконт Тибо и его слуга Андре, покорившие зрителей всего мира в легендарных комедиях ... 8.7 10 3
Info! Золотая раздача, скачанное не засчитывается.
Торрент: Зарегистрирован [2013-08-11 09:18] · скачан: 40 раз
Статус: √ проверено
Размер: 744 MB
Как cкачать? Как скачать Пришельцы в Америке через торрент | UTorrent

% Раздел Тема Автор DL S | L
Фильмы 2001-2005 [ 1.46 GB ] Пришельцы в Америке / Just Visiting [2001 DVDRip] DUB dexter lex Скачать
1 | 0

28-11-2019 20:33  

Отключить всю рекламу на сайте


    Дорогой пользователь! Огромная просьба, поблагодарите релизера, оцените раздачу и оставьте свои комментарий, если Вы скачали Пришельцы в Америке через торрент бесплатно! Внесите свою лепту в развитие PiratBit!
    Комментировать посты могут только пользователи прошедшие не сложную регистрацию
    Показать сообщения:    

    Пришельцы в Америке через торрент
    Скачать бесплатно Пришельцы в Америке
    Пришельцы в Америке скачать торрент
    Пришельцы в Америке смотреть онлайн
    Cкачать фильм Пришельцы в Америке бесплатно
    Пришельцы в Америке скачать торрент в хорошем качестве
    Пришельцы в Америке смотреть онлайн бесплатно в хорошем качестве


    Вы не можете начинать темы
    Вы не можете отвечать на сообщения
    Вы не можете редактировать свои сообщения
    Вы не можете удалять свои сообщения
    Вы не можете голосовать в опросах
    Вы не можете прикреплять файлы к сообщениям
    Вы можете скачивать файлы