Достать ножи: Стеклянная луковица

MVO

Добыча

Дубляж

Уэнсдэй

1 сезон

Тор

Дубляж

13 клиническая

1 сезон

Жестокая ночь

MVO

Одни из нас

1 сезон

Deluxe

pack

Рекомендуем

30

Пиратка

ВАЖНО

ВАЖНО

Ghostwire

Пиратка

jed

RePack

nioh2

RePack

RDR2

RePack

NEED FOR SPEED™ PAYBACK

RePack

скачать торрент

Кинопоиск HD

Острые козырьки 6 сезон

6 сезон

FAR CRY 6

RePack

скачать торрент

Лицензия

скачать торрент

MVO

1

1 сезон

скачать торрент

1 сезон

скачать торрент

Лицензия

  

Эскадрилья "Лафайет" / Flyboys (Тони Билл) [2006 г., история, приключения, боевик, военный, драма, BD-Remux 1080p, Дубляж + MVO+ Original Eng ]

Эскадрилья "Лафайет" через торрент piratbit.org

Размер: 23.15 GB | Добавлен: 9 лет 5 мес. назад | Торрент скачан:34 раза
Смотреть онлайн | Скачать | Поддержите нас   

14-08-2013 09:18 Эскадрилья "Лафайет" Скачать торрент  

Эскадрилья "Лафайет" / Flyboys «Inspired by a true story»
Год выпуска: 2006
Страна: Франция - США
Жанр: история, приключения, боевик, военный, драма,
Перевод: Профессиональный (полное дублирование) + Многоголосый

Режиссер: Тони Билл

Бюджет: $60 000 000
Премьера в мире: 18 мая 2006





В ролях: Джеймс Франко, Жан Рено, Скотт Хейзелл, Мак МакДональд, Тодд Бойс, Филип Уинчестер, Августин Легран, Мартин Хендерсон, Лекс Шрапнель, Карен Форд,

:История легендарной американской эскадрильи «Лафайет» времен Первой мировой войны. Летный состав этой эскадрильи составляли добровольцы-иностранцы из стран, которые не находились в состоянии войны с Германией.

В центре фильма - история американских юнцов, выпускников летных курсов, попадающие на войну, которая сильно отличалась от «французского курорта», куда они ехали. Это фильм о любви, мужской дружбе, мужестве, отваге и о фантастических самолетах, покоривших небо…


Качество: BD-Remux 1080p
Формат: MKV
Видео кодек: MPEG2
Аудио кодек: AC3, DTS
Видео: 1920x1080, 23.98fps, 20.7 Mbps~ 38.0 Mbps
Аудио#1: Русский AC3, 6 Ch 448 kb/s, 48.0 KHz (дубляж)
Аудио#2: Русский DTS 5.1, 768 kb/s, 48.0 KHz (многоголосый)
Аудио#3: Английский DTS 5.1, 1536 kb/s, 48.0 KHz




E:Эскадрилья ЛафайетFlyboys.BD-Remux.1080p..mkv
General
Unique ID : 193121124928855284603833759263707195263 (0x9149C696DBDC4C26BB26B6FEFE81677F)
Complete name : E:Эскадрилья ЛафайетFlyboys.BD-Remux.1080p..mkv
Format : Matroska
Format version : Version 1
File size : 23.2 GiB
Duration : 2h 18mn
Overall bit rate mode : Variable
Overall bit rate : 23.9 Mbps
Encoded date : UTC 2007-08-21 15:46:01
Writing application : mkvmerge v2.0.2 ('You're My Flame') built on Jun 25 2007 12:41:14
Writing library : libebml v0.7.7 + libmatroska v0.8.1
Video #1
ID : 1
Format : MPEG Video
Format version : Version 2
Format profile : Main@High
Format settings, BVOP : No
Format settings, Matrix : Default
Codec ID : V_MPEG2
Codec ID/Info : MPEG 1 or 2 Video
Duration : 2h 18mn
Bit rate mode : Variable
Bit rate : 20.7 Mbps
Maximum bit rate : 38.0 Mbps
Width : 1 920 pixels
Height : 1 080 pixels
Display aspect ratio : 16:9
Frame rate mode : Constant
Frame rate : 23.976 fps
Color space : YUV
Chroma subsampling : 4:2:0
Bit depth : 8 bits
Scan type : Progressive
Compression mode : Lossy
Bits/(Pixel*Frame) : 0.417
Stream size : 20.1 GiB (87%)
Title : 1920x1080p, MPEG2
Language : English
Default : Yes
Forced : No
Audio #2
ID : 2
Format : AC-3
Format/Info : Audio Coding 3
Mode extension : CM (complete main)
Format settings, Endianness : Big
Codec ID : A_AC3
Duration : 2h 18mn
Bit rate mode : Constant
Bit rate : 448 Kbps
Channel(s) : 6 channels
Channel positions : Front: L C R, Side: L R, LFE
Sampling rate : 48.0 KHz
Bit depth : 16 bits
Compression mode : Lossy
Stream size : 444 MiB (2%)
Title : AC3, 6ch 448kbps
Language : Russian
Default : Yes
Forced : No
Audio #3
ID : 3
Format : DTS
Format/Info : Digital Theater Systems
Mode : 16
Format settings, Endianness : Big
Codec ID : A_DTS
Duration : 2h 18mn
Bit rate mode : Constant
Bit rate : 755 Kbps
Channel(s) : 6 channels
Channel positions : Front: L C R, Side: L R, LFE
Sampling rate : 48.0 KHz
Bit depth : 24 bits
Compression mode : Lossy
Stream size : 749 MiB (3%)
Title : DTS 5.1, 768kbps
Language : Russian
Default : No
Forced : No
Audio #4
ID : 4
Format : DTS
Format/Info : Digital Theater Systems
Mode : 16
Format settings, Endianness : Big
Codec ID : A_DTS
Duration : 2h 18mn
Bit rate mode : Constant
Bit rate : 1 509 Kbps
Channel(s) : 6 channels
Channel positions : Front: L C R, Side: L R, LFE
Sampling rate : 48.0 KHz
Bit depth : 24 bits
Compression mode : Lossy
Stream size : 1.46 GiB (6%)
Title : DTS 5.1, 1536kbps
Language : English
Default : No
Forced : No


Эскадрилья "Лафайет" скачать торрент





Скачать Эскадрилья "Лафайет" через торрент https://pic1.kartinco.top/images/23/z32mqpk259.jpg Скачать, смотреть онлайн Эскадрилья "Лафайет" бесплантно в хорошем качестве В ролях: Джеймс Франко, Жан Рено, Скотт Хейзелл, Мак МакДональд, Тодд Бойс, Филип Уинчестер, Августин Легран, Мартин Хендерсон, Лекс ... 10 10 4
Info! Золотая раздача, скачанное не засчитывается.
Торрент: Зарегистрирован [2013-08-14 09:18] · скачан: 34 раз
Статус: √ проверено
Размер: 23.15 GB
Как cкачать? Как скачать Эскадрилья "Лафайет" через торрент | UTorrent

28-11-2019 20:33  


Отключить вcю реклaмy на сайте, в т.ч. и в плеере онлайн просмотра!

    Дорогой пользователь! Огромная просьба, поблагодарите релизера, оцените раздачу и оставьте свои комментарий, если Вы скачали Эскадрилья "Лафайет" через торрент бесплатно!!
    Комментировать посты могут только пользователи прошедшие не сложную регистрацию
    Показать сообщения:    


    Эскадрилья "Лафайет" через торрент
    Скачать бесплатно Эскадрилья "Лафайет"
    Эскадрилья "Лафайет" скачать торрент
    Эскадрилья "Лафайет" смотреть онлайн
    Cкачать фильм Эскадрилья "Лафайет" бесплатно
    Эскадрилья "Лафайет" скачать торрент в хорошем качестве
    Эскадрилья "Лафайет" смотреть онлайн бесплатно в хорошем качестве
    Вы не можете начинать темы
    Вы не можете отвечать на сообщения
    Вы не можете редактировать свои сообщения
    Вы не можете удалять свои сообщения
    Вы не можете голосовать в опросах
    Вы не можете прикреплять файлы к сообщениям
    Вы можете скачивать файлы
    Эскадрилья "Лафайет" / Flyboys [2006 г., история, приключения, боевик, военный, драма, BD-Remux 1080p, Дубляж + MVO+ Original Eng ] смотреть онлайн, скачать торрент picoco.icu