Достать ножи: Стеклянная луковица

MVO

Добыча

Дубляж

Уэнсдэй

1 сезон

Тор

Дубляж

13 клиническая

1 сезон

Жестокая ночь

MVO

Одни из нас

1 сезон

Deluxe

pack

Рекомендуем

30

Пиратка

ВАЖНО

ВАЖНО

Ghostwire

Пиратка

jed

RePack

nioh2

RePack

RDR2

RePack

NEED FOR SPEED™ PAYBACK

RePack

скачать торрент

Кинопоиск HD

Острые козырьки 6 сезон

6 сезон

FAR CRY 6

RePack

скачать торрент

Лицензия

скачать торрент

MVO

1

1 сезон

скачать торрент

1 сезон

скачать торрент

Лицензия

  

Люди Икс: Начало. Росомаха / X-Men Origins: Wolverine (Гэвин Худ / Gavin Hood) [2009 г., Фантастика, боевик, триллер, фэнтези, BD Remux]

Люди Икс: Начало. Росомаха через торрент piratbit.org

Размер: 27.36 GB | Добавлен: 9 лет 5 мес. назад | Торрент скачан:188 раз
Смотреть онлайн | Скачать | Поддержите нас   

14-08-2013 09:30 Люди Икс: Начало. Росомаха Скачать торрент  

Люди Икс: Начало. Росомаха / X-Men Origins: WolverineГод выпуска: 2009
Страна: США
Жанр: фантастика, боевик, триллер, приключения
Продолжительность: 01:47:24
Перевод: Профессиональный (полное дублирование)
Субтитры: Русские, русские (надписи и пр.), английские
Режиссер: Гэвин Худ / Gavin Hood
В ролях: Хью Джекман (Logan / Wolverine), Лив Шрайбер (Victor Creed), Дэнни Хьюстон (Stryker), Уилл Ай Эм (John Wraith), Линн Коллинс (Kayla Silverfox), Кевин Дюран (Fred Dukes), Доминик Монахэн (Chris Bradley / Bolt), Тейлор Китч (Remy LeBeau), Дэниэл Хенни (Agent Zero), Райан Рейнольдс (Wade Wilson), Тим Пакок (Scott Summers), Джулия Блейк (Heather Hudson)
Описание:
Фильм рассказывает о неистовом и романтичном прошлом Росомахи, его сложных отношениях с Виктором Кридом и о зловещей программе Оружие Х. При этом Росомаха встречается со многими мутантами, уже знакомыми и новыми, и узнает несколько легенд о мире Людей Икс.
Рейтинг
kinopoisk.ru: 7.529 (76 907)
imdb.com: 6.70 (196 899)
MPAA: PG-13 - Детям до 13 лет просмотр не желателен
Качество: BD Remux
Формат: MKV
Видео кодек: AVC
Аудио кодек: DTS
Видео: AVC, 1920x1080 (16:9), 34240 kbps, 23,976 fps, 0,689 bpp
Аудио №1: русский / DTS / 5.1 / 48 kHz / 755 kbps / 24 bit ||
Аудио №2: английский / DTS / 5.1 / 48 kHz / 755 kbps / 24 bit
General
Unique ID : 180120324258509019987970254417629575009 (0x8781E9A0B13B7623BEE9A7DA61FC7761)
Complete name : D:ТорентыX-Men Origins Wolverine.2009.BD.Remux.1080p.h264.Rus.Eng.mkv
Format : Matroska
Format version : Version 2
File size : 27.4 GiB
Duration : 1h 47mn
Overall bit rate mode : Variable
Overall bit rate : 36.5 Mbps
Encoded date : UTC 2009-08-26 07:35:53
Writing application : mkvmerge v2.9.8 ('C'est le bon') built on Aug 13 2009 12:49:06
Writing library : libebml v0.7.7 + libmatroska v0.8.1

Video
ID : 1
Format : AVC
Format/Info : Advanced Video Codec
Format profile : High@L4.1
Format settings, CABAC : Yes
Format settings, ReFrames : 4 frames
Muxing mode : Container profile=Unknown@0.0
Codec ID : V_MPEG4/ISO/AVC
Duration : 1h 47mn
Bit rate mode : Variable
Bit rate : 34.2 Mbps
Maximum bit rate : 36.9 Mbps
Width : 1 920 pixels
Height : 1 080 pixels
Display aspect ratio : 16:9
Frame rate : 23.976 fps
Color space : YUV
Chroma subsampling : 4:2:0
Bit depth : 8 bits
Scan type : Progressive
Bits/(Pixel*Frame) : 0.689
Stream size : 25.7 GiB (94%)
Language : English
Default : Yes
Forced : No
Color primaries : BT.709-5, BT.1361, IEC 61966-2-4, SMPTE RP177
Transfer characteristics : BT.709-5, BT.1361
Matrix coefficients : BT.709-5, BT.1361, IEC 61966-2-4 709, SMPTE RP177

Audio #1
ID : 2
Format : DTS
Format/Info : Digital Theater Systems
Codec ID : A_DTS
Duration : 1h 47mn
Bit rate mode : Constant
Bit rate : 755 Kbps
Channel(s) : 6 channels
Channel positions : Front: L C R, Side: L R, LFE
Sampling rate : 48.0 KHz
Bit depth : 24 bits
Compression mode : Lossy
Stream size : 580 MiB (2%)
Title : DTS 5.1 768 kbps
Language : Russian
Default : Yes
Forced : No

Audio #2
ID : 3
Format : DTS
Format/Info : Digital Theater Systems
Codec ID : A_DTS
Duration : 1h 47mn
Bit rate mode : Constant
Bit rate : 755 Kbps
Channel(s) : 6 channels
Channel positions : Front: L C R, Side: L R, LFE
Sampling rate : 48.0 KHz
Bit depth : 24 bits
Compression mode : Lossy
Stream size : 580 MiB (2%)
Title : DTS 5.1 768 kbps
Language : English
Default : No
Forced : No

Text #1
ID : 4
Format : UTF-8
Codec ID : S_TEXT/UTF8
Codec ID/Info : UTF-8 Plain Text
Language : Russian
Default : No
Forced : No

Text #2
ID : 5
Format : UTF-8
Codec ID : S_TEXT/UTF8
Codec ID/Info : UTF-8 Plain Text
Language : English
Default : No
Forced : No

Text #3
ID : 6
Format : UTF-8
Codec ID : S_TEXT/UTF8
Codec ID/Info : UTF-8 Plain Text
Title : Tol'ko nadpisi
Language : Russian
Default : Yes
Forced : No



Скачать Люди Икс: Начало. Росомаха через торрент http://i4-imageban-ru.translate.goog/out/2013/08/14/a17530d756e6819093c6ae4e2221149a.jpg Скачать, смотреть онлайн Люди Икс: Начало. Росомаха бесплантно в хорошем качестве Описание: Фильм рассказывает о неистовом и романтичном прошлом Росомахи, его сложных отношениях с Виктором Кридом и о зловещей программе ... 10 10 11
Info! Золотая раздача, скачанное не засчитывается.
Торрент: Зарегистрирован [2013-08-14 09:30] · скачан: 188 раз
Статус: √ проверено
Размер: 27.36 GB
Как cкачать? Как скачать Люди Икс: Начало. Росомаха через торрент | UTorrent

% Раздел Тема Автор DL S | L
Фильмы (DVD фильмы) [ 5.46 GB ] Люди Икс: Начало. Росомаха / X-Men Origins: Wolverine | | Люди Икс: Начало. Росомаха / X-Men Origins: Wolverine (Гэвин Худ / Gavin Hood paul08 Скачать
1 | 0

28-11-2019 20:33  


Отключить вcю реклaмy на сайте, в т.ч. и в плеере онлайн просмотра!

02-03-2014 15:27 Люди Икс: Начало. Росомаха Скачать торрент  

спс за отличный фильм



    Дорогой пользователь! Огромная просьба, поблагодарите релизера, оцените раздачу и оставьте свои комментарий, если Вы скачали Люди Икс: Начало. Росомаха через торрент бесплатно!!
    Комментировать посты могут только пользователи прошедшие не сложную регистрацию
    Показать сообщения:    


    Люди Икс: Начало. Росомаха через торрент
    Скачать бесплатно Люди Икс: Начало. Росомаха
    Люди Икс: Начало. Росомаха скачать торрент
    Люди Икс: Начало. Росомаха смотреть онлайн
    Cкачать фильм Люди Икс: Начало. Росомаха бесплатно
    Люди Икс: Начало. Росомаха скачать торрент в хорошем качестве
    Люди Икс: Начало. Росомаха смотреть онлайн бесплатно в хорошем качестве
    Вы не можете начинать темы
    Вы не можете отвечать на сообщения
    Вы не можете редактировать свои сообщения
    Вы не можете удалять свои сообщения
    Вы не можете голосовать в опросах
    Вы не можете прикреплять файлы к сообщениям
    Вы можете скачивать файлы
    Люди Икс: Начало. Росомаха / X-Men Origins: Wolverine [2009 г., Фантастика, боевик, триллер, фэнтези, BD Remux] смотреть онлайн, скачать торрент picoco.icu