1 сезон

1 сезон

iTunes

1

iTunes

Кинопоиск HD

iTunes

13

1 сезон

RePack

30

Deluxe

ВАЖНО

ИГРА 18+

pack

RePack

MK11
pack

Легкие деньги

RePack

jed

RePack

fifa19

RePack

RDR2

RePack

NEED FOR SPEED™ PAYBACK

4 сезон

9 сезон

Бесстыжие 9 сезон

Все сериалы

все сериалы на PB.wtf

RePack

FAR CRY 5
  
Magnet ссылка

Painkiller: Победившая боль / Painkiller Jane (Сэнфорд Букставер) [2005, фантастика, боевик, драма, DVDRip,MVO] piratbit.org

Painkiller: Победившая боль через торрент piratbit.org

Размер: 1.37 GB | Добавлен: 7 лет 8 мес. назад | Торрент скачан:170 раз
Скачать  

26-08-2013 05:49 Painkiller: Победившая боль Скачать торрент  


Painkiller: Победившая боль / Painkiller Jane


«Выжить - значит победить!..»

Год выпуска: 2005
Страна: США , Канада
Жанр: фантастика, боевик, драма
Продолжительность: 01:22:13
Перевод: Профессиональный (многоголосый закадровый)

Режиссер: Сэнфорд Букставер
Сценарий: Джон Харрисон, Дон Кит Оппер, Грег Голд, ...
Продюсер: Харви Франд, Грег Голд, Джон Харрисон, ...

В ролях: Эммануэль Вожье / Emmanuelle Vaugier (Capt. Jane Elizabeth Browning, ('Painkiller Jane')), Эрик Дэйн / Eric Dane (Nick), Ричард Раундтри / Richard Roundtree (Colonel Watts), Венус Терцо / Venus Terzo (Carla Browning), Ховард Уолкер / Walker Howard (Blue), Каллум Кит Ренни / Callum Keith Rennie (Mitchell), Тейт Донован / Tate Donovan (Dr. Graham Knight / Lucas Insley), Пола Бранкати / Paula Brancati (Young Jane)


Описание: Во время военной операции от химического оружия погибают все солдаты, кроме героини фильма. На нее химикаты подействовали иначе, ее тело очень быстро восстанавливается после практически любых повреждений. Она надеется на помощь со стороны командования, но начальство рассматривает ее всего лишь как часть эксперимента. Героиня с таким положением дел не согласна!

Качество: DVDRip
Формат: AVI
Видео кодек: XviD
Аудио кодек: AC3
Видео: 720x400 (16:9), 23.976 fps, XviD, 2 182 Kbps
Аудио: Аудио #1: AC3, 192 Kbps, 48.0 KHz, 2 ch

СЭМПЛ

Код:

General
Complete name                    : Painkiller.avi
Format                           : AVI
Format/Info                      : Audio Video Interleave
File size                        : 1.37 GiB
Duration                         : 1h 22mn
Overall bit rate                 : 2 382 Kbps

Video
ID                               : 0
Format                           : MPEG-4 Visual
Format profile                   : Advanced Simple@L5
Format settings, BVOP            : Yes
Format settings, QPel            : No
Format settings, GMC             : No warppoints
Format settings, Matrix          : Custom
Codec ID                         : XVID
Codec ID/Hint                    : XviD
Duration                         : 1h 22mn
Bit rate                         : 2 182 Kbps
Width                            : 720 pixels
Height                           : 400 pixels
Display aspect ratio             : 16:9
Frame rate                       : 23.976 fps
Color space                      : YUV
Chroma subsampling               : 4:2:0
Bit depth                        : 8 bits
Scan type                        : Progressive
Bits/(Pixel*Frame)               : 0.316
Stream size                      : 1.25 GiB (92%)
Writing library                  : XviD 73

Audio
ID                               : 1
Format                           : AC-3
Format/Info                      : Audio Coding 3
Mode extension                   : CM (complete main)
Codec ID                         : 2000
Duration                         : 1h 22mn
Bit rate mode                    : Constant
Bit rate                         : 192 Kbps
Channel(s)                       : 2 channels
Channel positions                : Front: L R
Sampling rate                    : 48.0 KHz
Bit depth                        : 16 bits
Stream size                      : 113 MiB (8%)
Alignment                        : Aligned on interleaves
Interleave, duration             : 64 ms (1.53 video frames)
Interleave, preload duration     : 192 ms
Title                            : AudioFile_80







piratbit.org



Скачать Painkiller: Победившая боль через торрент http://i57.fastpic.ru/big/2013/0826/5a/98246eb1352526e8ede1af04e10d025a.jpg Скачать фильм Painkiller: Победившая боль через торрент бесплантно в хорошем качестве Описание: Во время военной операции от химического оружия погибают все солдаты, кроме героини фильма. На нее химикаты подействовали иначе, ... 8.8 10 13
Info! Золотая раздача, скачанное не засчитывается.
Торрент: Зарегистрирован [2013-08-26 05:49] · скачан: 170 раз
Статус: √ проверено
Размер: 1.37 GB
Как cкачать? Как скачать Painkiller: Победившая боль через торрент | UTorrent

% Раздел Тема Автор DL S | L
Зарубежные сериалы [ 8.38 GB ] Победившая боль / Крепкий орешек Джейн / Painkiller Jane / Сезон: 1 / Серии 1-22 [2007 SATRip]MVO+ Original Assasinca Скачать
1 | 0

28-11-2019 20:33  

Отключить всю рекламу на сайте

26-08-2013 07:06 Painkiller: Победившая боль Скачать торрент  

Не видел ни одного нормально поставленного и сыгранного фильма с бабами супергеройшами.Всегда всё неестественно и наиграно.Им на длинных ходулях по подиуму вышагивать и мануфактуру демонстрировать,а они ими неуклюже в воздухе машут и становятся в картинные позы.Здоровенные мужики при виде облегающего комбинезона и широко расставленных бёдер валятся штабелями.Думаю,что и этот шедевр о равноправии полов мало чем отличается от других.piratbit.org



26-08-2013 07:08 Painkiller: Победившая боль Скачать торрент  

Ну а как фильм то?)piratbit.org



26-08-2013 07:37 Painkiller: Победившая боль Скачать торрент  

на цитату maori45 можно сказать фильм же снят в жанре фантастики
а так, полностью согласен

за релиз спасибо!!piratbit.org



28-11-2013 12:10 Painkiller: Победившая боль Скачать торрент  

?piratbit.org



13-12-2013 18:38 Painkiller: Победившая боль Скачать торрент  

yes

maori45 писал(а):

Не видел ни одного нормально поставленного и сыгранного фильма с бабами супергеройшами.Всегда всё неестественно и наиграно.Им на длинных ходулях по подиуму вышагивать и мануфактуру демонстрировать,а они ими неуклюже в воздухе машут и становятся в картинные позы.Здоровенные мужики при виде облегающего комбинезона и широко расставленных бёдер валятся штабелями.Думаю,что и этот шедевр о равноправии полов мало чем отличается от других.

piratbit.org



    Дорогой пользователь! Огромная просьба, поблагодарите релизера, оцените раздачу и оставьте свои комментарий, если Вы скачали Painkiller: Победившая боль через торрент бесплатно! Внесите свою лепту в развитие PiratBit!
    Комментировать посты могут только пользователи прошедшие не сложную регистрацию
    Показать сообщения:    

    Painkiller: Победившая боль через торрент
    Скачать бесплатно Painkiller: Победившая боль
    Painkiller: Победившая боль скачать торрент
    Painkiller: Победившая боль смотреть онлайн
    Cкачать фильм Painkiller: Победившая боль бесплатно
    Painkiller: Победившая боль скачать торрент в хорошем качестве
    Painkiller: Победившая боль смотреть онлайн бесплатно в хорошем качестве


    Вы не можете начинать темы
    Вы не можете отвечать на сообщения
    Вы не можете редактировать свои сообщения
    Вы не можете удалять свои сообщения
    Вы не можете голосовать в опросах
    Вы не можете прикреплять файлы к сообщениям
    Вы можете скачивать файлы