новый адрес
Мега распродажа FORZA HORIZON 4 ULTIMATE+ВСЕ DLC+ОНЛАЙН всего за 499р. 349 руб. (супер цена). Внимание количество ограничено!!!

iTunes

1+1

iTunes

мы

iTunes

1

iTunes

Чернобыль

iTunes

Ральф против интернета

Лицензия

ПШазам

Лицензия

Игра престолов

Лицензия

30
pack

ВАЖНО

!!Акция!!

Alien_RageХит недели

RePack

Resident Evil 21

ИГРА 18+

pack

RePack

Metro:Exodus

!!Акция!!

Alien_Rage

RePack

fifa19

RePack

Assassins Creed: Odyssey

RePack

NEED FOR SPEED™ PAYBACK

3 сезон

9 сезон

Бесстыжие 9 сезон

Все сериалы

все сериалы на PB.wtf

RePack

FAR CRY 5
Ребята, катастрофически не хватает 1900р. для оплаты серверов за Октябрь (всвязи с блокировками трафик упал в 3 раза), 1-2р., выручайте.
  

Изучая природу 3D / Erlebnis Natur 3D/Experience Nature 3D (Аттила Тенки) [2012, Документальный, научно - популярный, флора, фауна, Профессиональный (дублированный) + Английский, BDRip 1080p] Half OverUnder / Вертикальная анаморфная стереопара piratbit.org

Изучая природу 3D через торрент piratbit.org

Размер: 8.67 GB | Добавлен: 6 лет 2 мес. назад | Торрент скачан:448 раз
Скачать  

31-08-2013 02:09 Изучая природу 3D Скачать торрент  

Изучая природу 3D / Erlebnis Natur 3D/Experience Nature 3D
Год выпуска: 2012
Страна: Германия (Power Pictures)
Жанр: Документальный,
Продолжительность: 01:00:40
Перевод: Профессиональный (дублированный)
Субтитры: Отсутствуют

Режиссер: Аттила Тенки (Attila Tenki)

Описание: Французские Альпы по праву считаются одним из самых живописных уголков Земли. Авторы фильма приглашают совершить увлекательное путешествие в этот потрясающий мир зеленых склонов и величественных вершин. Любоваться разнообразными красотами уникальной местности можно бесконечно: белоснежные пики, окутанные пушистыми облаками, бурлящие реки, кристально чистые озера и изумрудные луга составляют уникальную биосистему, в которой все взаимосвязано. Каждый поворот горной тропинки сулит новые впечатления и неожиданные открытия, которые становятся по-настоящему яркими в формате 3D.

Формат 3D: Half OverUnder / Вертикальная анаморфная стереопара
Порядок ракурсов: Левый ракурс первый

Качество: BDRip 1080p
Формат: MKV
Видео кодек: AVC
Аудио кодек: AC3
Видео: AVC, 18,8 Мбит/сек, 1920*1080 (16:9), в 23,976 кадра/сек
Аудио#1: AC3, 640 Кбит/сек, 48,0 КГц, 16 бит, 6 каналов Русский
Аудио#2: AC-3, 640 Кбит/сек, 48,0 КГц, 16 бит, 6 каналов, Английский
Премьера: 5 июля 2013
Релиз на Blu-Ray (DVD): 7 августа 2013 (5 сентября 2013)



Общее
Кол-во : 284
Кол-во потоков такого типа : 1
Тип потока : General
Тип потока : Общее
Идентификатор типа потока : 0
Inform : Matroska: 8,67 Гбайт, 1 ч. 0 м.
Уникальный идентификатор : 180580844950509689414743416249487904947
Уникальный идентификатор : 180580844950509689414743416249487904947 (0x87DA9B0D0301EB5E8A2D1DE9CC52D0B3)
Кол-во видеопотоков : 1
Кол-во аудиопотоков : 2
Кол-во потоков меню : 1
Video_Format_List : AVC
Video_Format_WithHint_List : AVC
Видеокодеки : AVC
Video_Language_List : German
Audio_Format_List : AC-3 / AC-3
Audio_Format_WithHint_List : AC-3 / AC-3
Аудиокодеки : AC3 / AC3
Audio_Language_List : Russian / English
Полное имя : H:ТОРРЕНТЫАльпы.mkv
Имя папки : H:ТОРРЕНТЫ
Имя файла : Альпы
Расширение : mkv
Формат : Matroska
Формат : Matroska
Формат/Ссылка : http://packs.matroska.org/
Формат/Используется в : mkv mk3d mka mks
Коммерческое название : Matroska
Версия формата : Version 2
Кодек : Matroska
Кодек : Matroska
Кодек/Ссылка : http://packs.matroska.org/
Кодек/Используется в : mkv mk3d mka mks
Размер файла : 9313785456
Размер файла : 8,67 Гбайт
Размер файла : 9 Гбайт
Размер файла : 8,7 Гбайт
Размер файла : 8,67 Гбайт
Размер файла : 8,674 Гбайт
Продолжительность : 3640000
Продолжительность : 1 ч. 0 м.
Продолжительность : 1 ч. 0 м. 40 с. 0 мс.
Продолжительность : 1 ч. 0 м.
Продолжительность : 01:00:40.000
Общий поток : 20469858
Общий поток : 20,5 Мбит/сек
Размер потока : 185309143
Размер потока : 177 Мбайт (2%)
Размер потока : 177 Мбайт
Размер потока : 177 Мбайт
Размер потока : 177 Мбайт
Размер потока : 176,7 Мбайт
Размер потока : 177 Мбайт (2%)
Пропорции потока : 0.01990
Заголовок : Изучая природу 3D / Experience Nature 3D (3D) 2012
Название фильма : Изучая природу 3D / Experience Nature 3D (3D) 2012
Дата кодирования : UTC 2013-08-26 13:39:30
Дата файла : UTC 2013-08-27 01:05:29.380
Дата файла (местная) : 2013-08-27 08:05:29.380
Дата изменения файла : UTC 2013-08-27 07:20:26.790
Дата изменения файла (местная) : 2013-08-27 14:20:26.790
Программа кодирования : mkvmerge v5.8.0 ('No Sleep / Pillow') built on Sep 2 2012 15:37:04
Библиотека кодирования : libebml v1.2.3 + libmatroska v1.3.0
Библиотека кодирования : libebml v1.2.3 + libmatroska v1.3.0

Видео
Кол-во : 263
Кол-во потоков такого типа : 1
Тип потока : Video
Тип потока : Видео
Идентификатор типа потока : 0
StreamOrder : 0
Inform : German, 18,8 Мбит/сек, 1920*1080 (16:9), в 23,976 кадра/сек, AVC (High@L4.1) (CABAC / 4 Ref Frames)
Идентификатор : 1
Идентификатор : 1
Уникальный идентификатор : 1
Формат : AVC
Формат/Информация : Advanced Video Codec
Формат/Ссылка : http://developers.videolan.org/x264.html
Коммерческое название : AVC
Профиль формата : High@L4.1
Настройки формата : CABAC / 4 Ref Frames
Параметр CABAC формата : Yes
Параметр CABAC формата : Да
Параметр ReFrames формата : 4
Параметр ReFrames формата : 4 кадра
Интернет-тип носителя : video/H264
Идентификатор кодека : V_MPEG4/ISO/AVC
Идентификатор кодека/Ссылка : http://ffdshow-tryout.sourceforge.net/
Кодек : V_MPEG4/ISO/AVC
Кодек : AVC
Кодек/Семейство : AVC
Кодек/Информация : Advanced Video Codec
Кодек/Ссылка : http://ffdshow-tryout.sourceforge.net/
Профиль кодека : High@L4.1
Настройки кодека : CABAC / 4 Ref Frames
Параметр CABAC кодека : Yes
Codec_Settings_RefFrames : 4
Продолжительность : 3640015
Продолжительность : 1 ч. 0 м.
Продолжительность : 1 ч. 0 м. 40 с. 15 мс.
Продолжительность : 1 ч. 0 м.
Продолжительность : 01:00:40.015
Битрейт : 18782508
Битрейт : 18,8 Мбит/сек
Ширина : 1920
Ширина : 1920 пикселей
Высота : 1080
Высота : 1080 пикселей
Пропорции пикселя : 1.000
Соотношение сторон : 1.778
Соотношение сторон : 16:9
Режим частоты кадров : CFR
Режим частоты кадров : Постоянный
Частота кадров : 23.976
Частота кадров : 23,976 кадра/сек
Счётчик кадров : 87273
Разрешение : 8
Разрешение : 8 бит
Колориметрия : 4:2:0
Цветовое пространство : YUV
Субдискретизация насыщенности : 4:2:0
Битовая глубина : 8
Битовая глубина : 8 бит
Тип развёртки : Progressive
Тип развёртки : Прогрессивная
Переплетение : PPF
Переплетение : Прогрессивная
Бит/(Пиксели*Кадры) : 0.378
Задержка : 0
Задержка : 00:00:00.000
Задержка в оригинале : Container
Задержка в оригинале : Контейнер
Размер потока : 8546076313
Размер потока : 7,96 Гбайт (92%)
Размер потока : 8 Гбайт
Размер потока : 8,0 Гбайт
Размер потока : 7,96 Гбайт
Размер потока : 7,959 Гбайт
Размер потока : 7,96 Гбайт (92%)
Пропорции потока : 0.91757
Заголовок : BDRip
Библиотека кодирования : x264 - core 129 r2245 bc13772
Библиотека кодирования : x264 core 129 r2245 bc13772
Библиотека кодирования/Имя : x264
Библиотека кодирования/Version : core 129 r2245 bc13772
Настройки программы : cabac=1 / ref=4 / deblock=1:-1:-1 / analyse=0x3:0x113 / me=umh / subme=9 / psy=1 / psy_rd=1.00:0.15 / mixed_ref=1 / me_range=32 / chroma_me=1 / trellis=2 / 8x8dct=1 / cqm=0 / deadzone=21,11 / fast_pskip=1 / chroma_qp_offset=-3 / threads=12 / lookahead_threads=2 / sliced_threads=0 / nr=0 / decimate=1 / interlaced=0 / bluray_compat=0 / constrained_intra=0 / bframes=9 / b_pyramid=2 / b_adapt=2 / b_bias=0 / direct=3 / weightb=1 / open_gop=0 / weightp=2 / keyint=250 / keyint_min=23 / scenecut=40 / intra_refresh=0 / rc_lookahead=60 / rc=crf / mbtree=1 / crf=18.0 / qcomp=0.70 / qpmin=10 / qpmax=69 / qpstep=4 / vbv_maxrate=40000 / vbv_bufsize=30000 / crf_max=0.0 / nal_hrd=none / frame-packing=4 / ip_ratio=1.40 / aq=1:0.70
Язык : de
Язык : German
Язык : German
Язык : de
Язык : deu
Язык : de
Default : Yes
Default : Да
Forced : No
Forced : Нет

Аудио #1
Кол-во : 234
Кол-во потоков такого типа : 2
Тип потока : Audio
Тип потока : Аудио
Идентификатор типа потока : 0
Позиция идентификатора типа потока : 1
StreamOrder : 1
Inform : Russian, 640 Кбит/сек, 48,0 КГц, 16 бит, 6 каналов, AC-3
Идентификатор : 2
Идентификатор : 2
Уникальный идентификатор : 904364711185711789
Формат : AC-3
Формат/Информация : Audio Coding 3
Коммерческое название : AC-3
Расширение режима : CM (complete main)
Параметр Endianness формата : Big
Идентификатор кодека : A_AC3
Кодек : AC3
Кодек : AC3
Кодек/Семейство : AC3
Кодек/Информация : Dolby AC3
Продолжительность : 3640000
Продолжительность : 1 ч. 0 м.
Продолжительность : 1 ч. 0 м. 40 с. 0 мс.
Продолжительность : 1 ч. 0 м.
Продолжительность : 01:00:40.000
Вид битрейта : CBR
Вид битрейта : Постоянный
Битрейт : 640000
Битрейт : 640 Кбит/сек
Каналы : 6
Каналы : 6 каналов
Расположение каналов : Front: L C R, Side: L R, LFE
Расположение каналов : 3/2/0.1
Частота : 48000
Частота : 48,0 КГц
Количество образцов : 174720000
Разрешение : 16
Разрешение : 16 бит
Битовая глубина : 16
Битовая глубина : 16 бит
Метод сжатия : Lossy
Метод сжатия : С потерями
Задержка : 0
Задержка : 00:00:00.000
Задержка в оригинале : Container
Задержка в оригинале : Контейнер
Задержка видео : 0
Задержка видео : 0
Размер потока : 291200000
Размер потока : 278 Мбайт (3%)
Размер потока : 278 Мбайт
Размер потока : 278 Мбайт
Размер потока : 278 Мбайт
Размер потока : 277,7 Мбайт
Размер потока : 278 Мбайт (3%)
Пропорции потока : 0.03127
Заголовок : Дубляж - BD 3D Rus
Язык : ru
Язык : Russian
Язык : Russian
Язык : ru
Язык : rus
Язык : ru
Default : Yes
Default : Да
Forced : No
Forced : Нет
bsid : 8
dialnorm : -31
dialnorm/String : -31 dB
acmod : 7
lfeon : 1
dialnorm_Average : -31
dialnorm_Average/String : -31 dB
dialnorm_Minimum : -31
dialnorm_Minimum/String : -31 dB
dialnorm_Maximum : -31
dialnorm_Maximum/String : -31 dB
dialnorm_Count : 2

Аудио #2
Кол-во : 234
Кол-во потоков такого типа : 2
Тип потока : Audio
Тип потока : Аудио
Идентификатор типа потока : 1
Позиция идентификатора типа потока : 2
StreamOrder : 2
Inform : English, 640 Кбит/сек, 48,0 КГц, 16 бит, 6 каналов, AC-3
Идентификатор : 3
Идентификатор : 3
Уникальный идентификатор : 10539874137940782232
Формат : AC-3
Формат/Информация : Audio Coding 3
Коммерческое название : AC-3
Расширение режима : CM (complete main)
Параметр Endianness формата : Big
Идентификатор кодека : A_AC3
Кодек : AC3
Кодек : AC3
Кодек/Семейство : AC3
Кодек/Информация : Dolby AC3
Продолжительность : 3640000
Продолжительность : 1 ч. 0 м.
Продолжительность : 1 ч. 0 м. 40 с. 0 мс.
Продолжительность : 1 ч. 0 м.
Продолжительность : 01:00:40.000
Вид битрейта : CBR
Вид битрейта : Постоянный
Битрейт : 640000
Битрейт : 640 Кбит/сек
Каналы : 6
Каналы : 6 каналов
Расположение каналов : Front: L C R, Side: L R, LFE
Расположение каналов : 3/2/0.1
Частота : 48000
Частота : 48,0 КГц
Количество образцов : 174720000
Разрешение : 16
Разрешение : 16 бит
Битовая глубина : 16
Битовая глубина : 16 бит
Метод сжатия : Lossy
Метод сжатия : С потерями
Задержка : 0
Задержка : 00:00:00.000
Задержка в оригинале : Container
Задержка в оригинале : Контейнер
Задержка видео : 0
Задержка видео : 0
Размер потока : 291200000
Размер потока : 278 Мбайт (3%)
Размер потока : 278 Мбайт
Размер потока : 278 Мбайт
Размер потока : 278 Мбайт
Размер потока : 277,7 Мбайт
Размер потока : 278 Мбайт (3%)
Пропорции потока : 0.03127
Язык : en
Язык : English
Язык : English
Язык : en
Язык : eng
Язык : en
Default : No
Default : Нет
Forced : No
Forced : Нет
bsid : 8
dialnorm : -31
dialnorm/String : -31 dB
acmod : 7
lfeon : 1
dialnorm_Average : -31
dialnorm_Average/String : -31 dB
dialnorm_Minimum : -31
dialnorm_Minimum/String : -31 dB
dialnorm_Maximum : -31
dialnorm_Maximum/String : -31 dB
dialnorm_Count : 2

Меню
Кол-во : 83
Кол-во потоков такого типа : 1
Тип потока : Menu
Тип потока : Меню
Идентификатор типа потока : 0
Chapters_Pos_Begin : 75
Chapters_Pos_End : 83
00:00:00.000 : :1
00:07:32.619 : :2
00:14:25.782 : :3
00:22:04.615 : :4
00:29:41.905 : :5
00:36:58.550 : :6
00:44:09.814 : :7
00:52:01.243 : :8

piratbit.org



Скачать Изучая природу 3D через торрент http://s016.radikal.ru/i336/1308/09/396a3a672734.png Скачать фильм Изучая природу 3D через торрент бесплантно в хорошем качестве Описание: Французские Альпы по праву считаются одним из самых живописных уголков Земли. Авторы фильма приглашают совершить увлекательное ... 10 10 19
Info! Золотая раздача, скачанное не засчитывается.
Торрент: Зарегистрирован [2013-08-31 02:09] · скачан: 448 раз
Статус: √ проверено
Размер: 8.67 GB
Как cкачать? Как скачать Изучая природу 3D через торрент | qTorrent



Последний раз редактировалось: GEKADOL (2013-08-31 02:33), всего редактировалось 3 раз(а)


>> Регистрируемся здесь <<






Отзывы и комментарии о схеме читаем и пишем здесь: ---> Отзывы и комментарии о схеме

Новые благодарочки в телеграм довольных пользователей:
скриншот   скриншот   скриншот   скриншот   скриншот

31-08-2013 02:16 Изучая природу 3D Скачать торрент  

Наверно не туда выложил И мани ток на серебро хватает Шибко не ругайтесь piratbit.org



01-09-2013 18:02 Изучая природу 3D Скачать торрент  

Фильм Experience Nature 3D файл Альпы.mkv :jest3: piratbit.org



    Дорогой пользователь! Огромная просьба, поблагодарите релизера, оцените раздачу и оставьте свои комментарий, если Вы скачали Изучая природу 3D через торрент бесплатно! Внесите свою лепту в развитие PiratBit!
    Комментировать посты могут только пользователи прошедшие не сложную регистрацию
    Показать сообщения:    

    Изучая природу 3D через торрент
    Скачать бесплатно Изучая природу 3D
    Изучая природу 3D скачать торрент
    Изучая природу 3D смотреть онлайн
    Cкачать фильм Изучая природу 3D бесплатно
    Изучая природу 3D скачать торрент в хорошем качестве
    Изучая природу 3D смотреть онлайн бесплатно в хорошем качестве


    Вы не можете начинать темы
    Вы не можете отвечать на сообщения
    Вы не можете редактировать свои сообщения
    Вы не можете удалять свои сообщения
    Вы не можете голосовать в опросах
    Вы не можете прикреплять файлы к сообщениям
    Вы можете скачивать файлы