Ссылка на приватное зеркало нашего сайта всего за 1$. Внимание количество ограничено!!!

2 сезон

iTunes

iTunes

1

iTunes

iTunes

iTunes

WEBRip

iTunes

30
pack

Вам бонус

ВАЖНО

!!Акция!!

Alien_RageХит недели

RePack

Horizon Zero Dawn

ИГРА 18+

pack

RePack

jed

!!Акция!!

Alien_Rage

RePack

fifa19

RePack

Assassins Creed: Odyssey

RePack

NEED FOR SPEED™ PAYBACK

4 сезон

9 сезон

Бесстыжие 9 сезон

Все сериалы

все сериалы на PB.wtf

RePack

FAR CRY 5
  

Преступник / Felon (Рик Роман Во) [2008, драма, криминал, BDRip,MVO] piratbit.org

Преступник через торрент piratbit.org

Размер: 1.46 GB | Добавлен: 7 лет назад | Торрент скачан:202 раза
Скачать  

31-08-2013 17:49 Преступник Скачать торрент  

Преступник / Felon
«No Rules. No Hope. No Way Out.»


Год выпуска: 2008
Страна: США
Жанр: драма, криминал
Продолжительность: 01:44:04
Перевод: Профессиональный (многоголосый закадровый)

Режиссер: Рик Роман Во
Сценарий: Рик Роман Во
Продюсер: Дэн Кестон, Такер Тули, Райан Брин, ...


Бюджет: $2 900 000
Сборы в США: $36 756
Премьера (мир): 13 июля 2008, ...
Релиз на DVD: 25 сентября 2008, «Columbia/Sony», ...
Релиз на Blu-Ray: 11 декабря 2008, «Columbia/Sony», ...
Рейтинг MPAA: Лицам до 17 лет обязательно присутствие взрослого


В ролях: Стивен Дорфф / Stephen Dorff (Wade Porter), Вэл Килмер / Val Kilmer (John Smith), Хэролд Перрино / Harold Perrineau (Lt. Jackson), Марисоль Николс / Marisol Nichols (Laura Porter), Энн Арчер / Anne Archer (Maggie), Ларнел Стовэлл / Larnell Stovall (Viper), Сэм Шепард / Sam Shepard (Gordon), Джонни Льюис / Johnny Lewis (Snowman)


Описание: Чудесный семьянин с грандиозным будущим теряет все, когда он случайно убивает грабителя, который ворвался в его дом. Суд приговаривает его к 3 годам заключения в тюрьме строгого режима, где правила общества больше не действуют…

Качество: BDRip
Формат: AVI
Видео кодек: XviD
Аудио кодек: AC3
Видео: 704x384 (16:9), 23.976 fps, XviD, 1 546 Kbps
Аудио: Аудио #1: AC3, 448 Kbps, 48.0 KHz, 6 ch

Код:

General
Complete name                    : Prestupnik.avi
Format                           : AVI
Format/Info                      : Audio Video Interleave
File size                        : 1.46 GiB
Duration                         : 1h 44mn
Overall bit rate                 : 2 004 Kbps
Movie name                       : Prestupnik_2008_BDRip_1.46_Menen
Director                         : Menen
Writing application              : VirtualDubMod 1.5.10.2 (build 2540/release)

Video
ID                               : 0
Format                           : MPEG-4 Visual
Format profile                   : Advanced Simple@L5
Format settings, BVOP            : Yes
Format settings, QPel            : No
Format settings, GMC             : No warppoints
Format settings, Matrix          : Custom
Codec ID                         : XVID
Codec ID/Hint                    : XviD
Duration                         : 1h 44mn
Bit rate                         : 1 546 Kbps
Width                            : 704 pixels
Height                           : 384 pixels
Display aspect ratio             : 16:9
Frame rate                       : 23.976 fps
Color space                      : YUV
Chroma subsampling               : 4:2:0
Bit depth                        : 8 bits
Scan type                        : Progressive
Bits/(Pixel*Frame)               : 0.239
Stream size                      : 1.12 GiB (77%)
Writing library                  : XviD 63

Audio
ID                               : 1
Format                           : AC-3
Format/Info                      : Audio Coding 3
Mode extension                   : CM (complete main)
Codec ID                         : 2000
Duration                         : 1h 44mn
Bit rate mode                    : Constant
Bit rate                         : 448 Kbps
Channel(s)                       : 6 channels
Channel positions                : Front: L C R, Side: L R, LFE
Sampling rate                    : 48.0 KHz
Bit depth                        : 16 bits
Stream size                      : 333 MiB (22%)
Alignment                        : Split accross interleaves
Interleave, duration             : 42 ms (1.00 video frame)
Interleave, preload duration     : 500 ms









piratbit.org



Скачать Преступник через торрент http://i59.fastpic.ru/big/2013/0831/43/7c6c64cd5a398126c90ac001f9bf8c43.jpg Скачать фильм Преступник через торрент бесплантно в хорошем качестве Описание: Чудесный семьянин с грандиозным будущим теряет все, когда он случайно убивает грабителя, который ворвался в его дом. Суд ... 8.9 10 17
Info! Золотая раздача, скачанное не засчитывается.
Торрент: Зарегистрирован [2013-08-31 17:49] · скачан: 202 раз
Статус: √ проверено
Размер: 1.46 GB
Как cкачать? Как скачать Преступник через торрент | qTorrent

% Раздел Тема Автор DL S | L
Фильмы [HD 720p, 1080p] (Хороший звук DUB, MVO) [ 8.28 GB ] Преступник / Felon [2008 BDRip 720p] MVO + Original Eng -Lexx- Скачать
1 | 0
Фильмы 2006-2008 [ 1.46 GB ] Преступник / Felon [2008 HDRip] markfiter Скачать
1 | 0
Фильмы 2006-2008 [ 1.37 GB ] Преступник / Felon [2008 DVDRip] sergei_s.75 Скачать
1 | 0


Последний раз редактировалось: VintMosina (2013-08-31 18:10), всего редактировалось 1 раз

28-11-2019 20:33  

Отключить всю рекламу на сайте

31-08-2013 18:00 Преступник Скачать торрент  

Вы бы рейтинги добавили,а то не ясно стоит ли тратить время на него или нет.
Уже сам глянул на кинопоиске как оказалось фильм отличный и я его видел давно уже Кто не смотрел качайте piratbit.org



    Дорогой пользователь! Огромная просьба, поблагодарите релизера, оцените раздачу и оставьте свои комментарий, если Вы скачали Преступник через торрент бесплатно! Внесите свою лепту в развитие PiratBit!
    Комментировать посты могут только пользователи прошедшие не сложную регистрацию
    Показать сообщения:    

    Преступник через торрент
    Скачать бесплатно Преступник
    Преступник скачать торрент
    Преступник смотреть онлайн
    Cкачать фильм Преступник бесплатно
    Преступник скачать торрент в хорошем качестве
    Преступник смотреть онлайн бесплатно в хорошем качестве


    Вы не можете начинать темы
    Вы не можете отвечать на сообщения
    Вы не можете редактировать свои сообщения
    Вы не можете удалять свои сообщения
    Вы не можете голосовать в опросах
    Вы не можете прикреплять файлы к сообщениям
    Вы можете скачивать файлы