новый адрес
Мега распродажа FORZA HORIZON 4 ULTIMATE+ВСЕ DLC+ОНЛАЙН всего за 499р. 349 руб. (супер цена). Внимание количество ограничено!!!

iTunes

1+1

iTunes

мы

iTunes

1

iTunes

Чернобыль

iTunes

Ральф против интернета

Лицензия

ПШазам

Лицензия

Игра престолов

Лицензия

30
pack

ВАЖНО

!!Акция!!

Alien_RageХит недели

RePack

Resident Evil 21

ИГРА 18+

pack

RePack

Metro:Exodus

!!Акция!!

Alien_Rage

RePack

fifa19

RePack

Assassins Creed: Odyssey

RePack

NEED FOR SPEED™ PAYBACK

3 сезон

9 сезон

Бесстыжие 9 сезон

Все сериалы

все сериалы на PB.wtf

RePack

FAR CRY 5
Ребята, катастрофически не хватает 1900р. для оплаты серверов за Октябрь (всвязи с блокировками трафик упал в 3 раза), 1-2р., выручайте.
  

Юго-западная Америка 3D: От Долины смерти до Гранд-каньона / America's Southwest 3D: From Grand Canyon To Death Valley (Аттила Тенки) [2012, Документальный, научно - популярный, флора, фауна, DUB] Half OverUnder / Вертикальная анаморфная стереопара piratbit.org

Юго-западная Америка 3D: От Долины смерти до Гранд-каньона через торрент piratbit.org

Размер: 4.47 GB | Добавлен: 6 лет 2 мес. назад | Торрент скачан:350 раз
Скачать  

01-09-2013 04:13 Юго-западная Америка 3D: От Долины смерти до Гранд-каньона Скачать торрент  

Юго-западная Америка 3D: От Долины смерти до Гранд-каньона / America's Southwest 3D: From Grand Canyon To Death Valley/Amerikas Südwesten: Vom Grand Ca
Год выпуска: 2012
Страна: Германия (Power Pictures)
Жанр: Документальный,
Продолжительность: 01:00:13
Перевод: Профессиональный дублированный
Субтитры: Нет

Режиссер: Аттила Тенки (Attila Tenki)

Описание: Дикий Запад Соединенных штатов. Край, окруженный мифами и овеянный легендами. Поражающие воображение пустынные ландшафты и завораживающие пейзажи, где гигантские кактусы устремляются в бездонную синеву неба, а живописные каньоны соседствуют с древними валунами, свидетельствуя о могуществе природы и быстротечности времени.
Кладовая полезных ископаемых, где сходятся Аризона, Невада, Калифорния и Юта, ежегодно привлекает миллионы туристов со всего мира, являясь настоящей Меккой для художников и исследователей, авантюристов и искателей приключений. Незабываемое путешествие в формате 3D по Долине Смерти и Великому каньону познакомит вас с многообразием садов пустыни, откроет тайны истинной красоты окружающего нас мира.

Доп. информация: Релиз на Blu-Ray (DVD): 24 июля 2013 (22 августа 2013)

Формат 3D: Half OverUnder / Вертикальная анаморфная стереопара
Порядок ракурсов: Левый ракурс первый

Качество: BDRip 1080p
Формат: MKV
Видео кодек: AVC
Аудио кодек: AC3
Видео: AVC, 9123 Кбит/сек, 1920*1080 (16:9), в 23,976 кадра/сек
Аудио#1: AC3, 640 Кбит/сек, 48,0 КГц, 16 бит, 6 каналов, Русский
Аудио#2: AC-3, 640 Кбит/сек, 48,0 КГц, 16 бит, 6 каналов, Английский




Общее
Кол-во : 284
Кол-во потоков такого типа : 1
Тип потока : General
Тип потока : Общее
Идентификатор типа потока : 0
Inform : Matroska: 4,47 Гбайт, 1 ч. 0 м.
Уникальный идентификатор : 240093029947659816603803246508466961531
Уникальный идентификатор : 240093029947659816603803246508466961531 (0xB4A03C4F1179AA48A454028165CAFC7B)
Кол-во видеопотоков : 1
Кол-во аудиопотоков : 2
Кол-во потоков меню : 1
Video_Format_List : AVC
Video_Format_WithHint_List : AVC
Видеокодеки : AVC
Video_Language_List : German
Audio_Format_List : AC-3 / AC-3
Audio_Format_WithHint_List : AC-3 / AC-3
Аудиокодеки : AC3 / AC3
Audio_Language_List : Russian / English
Полное имя : H:ТОРРЕНТЫКаньон.mkv
Имя папки : H:ТОРРЕНТЫ
Имя файла : Каньон
Расширение : mkv
Формат : Matroska
Формат : Matroska
Формат/Ссылка : http://packs.matroska.org/
Формат/Используется в : mkv mk3d mka mks
Коммерческое название : Matroska
Версия формата : Version 2
Кодек : Matroska
Кодек : Matroska
Кодек/Ссылка : http://packs.matroska.org/
Кодек/Используется в : mkv mk3d mka mks
Размер файла : 4797822231
Размер файла : 4,47 Гбайт
Размер файла : 4 Гбайт
Размер файла : 4,5 Гбайт
Размер файла : 4,47 Гбайт
Размер файла : 4,468 Гбайт
Продолжительность : 3616032
Продолжительность : 1 ч. 0 м.
Продолжительность : 1 ч. 0 м. 16 с. 32 мс.
Продолжительность : 1 ч. 0 м.
Продолжительность : 01:00:16.032
Общий поток : 10614557
Общий поток : 10,6 Мбит/сек
Размер потока : 95475873
Размер потока : 91,1 Мбайт (2%)
Размер потока : 91 Мбайт
Размер потока : 91 Мбайт
Размер потока : 91,1 Мбайт
Размер потока : 91,05 Мбайт
Размер потока : 91,1 Мбайт (2%)
Пропорции потока : 0.01990
Заголовок : Американский юго-запад: От Гранд-Каньона до Долины Смерти / America's Southwest: From Grand Canyon to Death Valley (3D) 2012
Название фильма : Американский юго-запад: От Гранд-Каньона до Долины Смерти / America's Southwest: From Grand Canyon to Death Valley (3D) 2012
Дата кодирования : UTC 2013-08-03 10:58:11
Дата файла : UTC 2013-09-01 02:30:42.403
Дата файла (местная) : 2013-09-01 09:30:42.403
Дата изменения файла : UTC 2013-09-01 03:21:13.702
Дата изменения файла (местная) : 2013-09-01 10:21:13.702
Программа кодирования : mkvmerge v5.8.0 ('No Sleep / Pillow') built on Sep 2 2012 15:37:04
Библиотека кодирования : libebml v1.2.3 + libmatroska v1.3.0
Библиотека кодирования : libebml v1.2.3 + libmatroska v1.3.0

Видео
Кол-во : 263
Кол-во потоков такого типа : 1
Тип потока : Video
Тип потока : Видео
Идентификатор типа потока : 0
StreamOrder : 0
Inform : German, 9123 Кбит/сек, 1920*1080 (16:9), в 23,976 кадра/сек, AVC (High@L4.1) (CABAC / 4 Ref Frames)
Идентификатор : 1
Идентификатор : 1
Уникальный идентификатор : 4011963225630928310
Формат : AVC
Формат/Информация : Advanced Video Codec
Формат/Ссылка : http://developers.videolan.org/x264.html
Коммерческое название : AVC
Профиль формата : High@L4.1
Настройки формата : CABAC / 4 Ref Frames
Параметр CABAC формата : Yes
Параметр CABAC формата : Да
Параметр ReFrames формата : 4
Параметр ReFrames формата : 4 кадра
Интернет-тип носителя : video/H264
Идентификатор кодека : V_MPEG4/ISO/AVC
Идентификатор кодека/Ссылка : http://ffdshow-tryout.sourceforge.net/
Кодек : V_MPEG4/ISO/AVC
Кодек : AVC
Кодек/Семейство : AVC
Кодек/Информация : Advanced Video Codec
Кодек/Ссылка : http://ffdshow-tryout.sourceforge.net/
Профиль кодека : High@L4.1
Настройки кодека : CABAC / 4 Ref Frames
Параметр CABAC кодека : Yes
Codec_Settings_RefFrames : 4
Продолжительность : 3616033
Продолжительность : 1 ч. 0 м.
Продолжительность : 1 ч. 0 м. 16 с. 33 мс.
Продолжительность : 1 ч. 0 м.
Продолжительность : 01:00:16.033
Битрейт : 9123327
Битрейт : 9123 Кбит/сек
Ширина : 1920
Ширина : 1920 пикселей
Высота : 1080
Высота : 1080 пикселей
Пропорции пикселя : 1.000
Соотношение сторон : 1.778
Соотношение сторон : 16:9
Режим частоты кадров : CFR
Режим частоты кадров : Постоянный
Частота кадров : 23.976
Частота кадров : 23,976 кадра/сек
Счётчик кадров : 86698
Разрешение : 8
Разрешение : 8 бит
Колориметрия : 4:2:0
Цветовое пространство : YUV
Субдискретизация насыщенности : 4:2:0
Битовая глубина : 8
Битовая глубина : 8 бит
Тип развёртки : Progressive
Тип развёртки : Прогрессивная
Переплетение : PPF
Переплетение : Прогрессивная
Бит/(Пиксели*Кадры) : 0.184
Задержка : 0
Задержка : 00:00:00.000
Задержка в оригинале : Container
Задержка в оригинале : Контейнер
Размер потока : 4123781238
Размер потока : 3,84 Гбайт (86%)
Размер потока : 4 Гбайт
Размер потока : 3,8 Гбайт
Размер потока : 3,84 Гбайт
Размер потока : 3,841 Гбайт
Размер потока : 3,84 Гбайт (86%)
Пропорции потока : 0.85951
Заголовок : BDRip by Ash61
Библиотека кодирования : x264 - core 119 r2106 07efeb4
Библиотека кодирования : x264 core 119 r2106 07efeb4
Библиотека кодирования/Имя : x264
Библиотека кодирования/Version : core 119 r2106 07efeb4
Настройки программы : cabac=1 / ref=4 / deblock=1:-3:-3 / analyse=0x3:0x113 / me=umh / subme=9 / psy=1 / psy_rd=1.00:0.15 / mixed_ref=1 / me_range=32 / chroma_me=1 / trellis=2 / 8x8dct=1 / cqm=0 / deadzone=21,11 / fast_pskip=1 / chroma_qp_offset=-3 / threads=12 / sliced_threads=0 / nr=0 / decimate=1 / interlaced=0 / bluray_compat=0 / constrained_intra=0 / bframes=7 / b_pyramid=2 / b_adapt=2 / b_bias=0 / direct=3 / weightb=1 / open_gop=0 / weightp=2 / keyint=250 / keyint_min=23 / scenecut=40 / intra_refresh=0 / rc_lookahead=60 / rc=crf / mbtree=1 / crf=18.0 / qcomp=0.70 / qpmin=10 / qpmax=51 / qpstep=4 / vbv_maxrate=40000 / vbv_bufsize=30000 / crf_max=0.0 / nal_hrd=none / frame-packing=4 / ip_ratio=1.40 / aq=1:0.70
Язык : de
Язык : German
Язык : German
Язык : de
Язык : deu
Язык : de
Default : Yes
Default : Да
Forced : No
Forced : Нет

Аудио #1
Кол-во : 234
Кол-во потоков такого типа : 2
Тип потока : Audio
Тип потока : Аудио
Идентификатор типа потока : 0
Позиция идентификатора типа потока : 1
StreamOrder : 1
Inform : Russian, 640 Кбит/сек, 48,0 КГц, 16 бит, 6 каналов, AC-3
Идентификатор : 2
Идентификатор : 2
Уникальный идентификатор : 16554488412134254257
Формат : AC-3
Формат/Информация : Audio Coding 3
Коммерческое название : AC-3
Расширение режима : CM (complete main)
Параметр Endianness формата : Big
Идентификатор кодека : A_AC3
Кодек : AC3
Кодек : AC3
Кодек/Семейство : AC3
Кодек/Информация : Dolby AC3
Продолжительность : 3616032
Продолжительность : 1 ч. 0 м.
Продолжительность : 1 ч. 0 м. 16 с. 32 мс.
Продолжительность : 1 ч. 0 м.
Продолжительность : 01:00:16.032
Вид битрейта : CBR
Вид битрейта : Постоянный
Битрейт : 640000
Битрейт : 640 Кбит/сек
Каналы : 6
Каналы : 6 каналов
Расположение каналов : Front: L C R, Side: L R, LFE
Расположение каналов : 3/2/0.1
Частота : 48000
Частота : 48,0 КГц
Количество образцов : 173569536
Разрешение : 16
Разрешение : 16 бит
Битовая глубина : 16
Битовая глубина : 16 бит
Метод сжатия : Lossy
Метод сжатия : С потерями
Задержка : 0
Задержка : 00:00:00.000
Задержка в оригинале : Container
Задержка в оригинале : Контейнер
Задержка видео : 0
Задержка видео : 0
Размер потока : 289282560
Размер потока : 276 Мбайт (6%)
Размер потока : 276 Мбайт
Размер потока : 276 Мбайт
Размер потока : 276 Мбайт
Размер потока : 275,9 Мбайт
Размер потока : 276 Мбайт (6%)
Пропорции потока : 0.06029
Заголовок : Дубляж - BD3D
Язык : ru
Язык : Russian
Язык : Russian
Язык : ru
Язык : rus
Язык : ru
Default : Yes
Default : Да
Forced : No
Forced : Нет
bsid : 8
dialnorm : -31
dialnorm/String : -31 dB
acmod : 7
lfeon : 1
dialnorm_Average : -31
dialnorm_Average/String : -31 dB
dialnorm_Minimum : -31
dialnorm_Minimum/String : -31 dB
dialnorm_Maximum : -31
dialnorm_Maximum/String : -31 dB
dialnorm_Count : 2

Аудио #2
Кол-во : 234
Кол-во потоков такого типа : 2
Тип потока : Audio
Тип потока : Аудио
Идентификатор типа потока : 1
Позиция идентификатора типа потока : 2
StreamOrder : 2
Inform : English, 640 Кбит/сек, 48,0 КГц, 16 бит, 6 каналов, AC-3
Идентификатор : 3
Идентификатор : 3
Уникальный идентификатор : 7546148016221030017
Формат : AC-3
Формат/Информация : Audio Coding 3
Коммерческое название : AC-3
Расширение режима : CM (complete main)
Параметр Endianness формата : Big
Идентификатор кодека : A_AC3
Кодек : AC3
Кодек : AC3
Кодек/Семейство : AC3
Кодек/Информация : Dolby AC3
Продолжительность : 3616032
Продолжительность : 1 ч. 0 м.
Продолжительность : 1 ч. 0 м. 16 с. 32 мс.
Продолжительность : 1 ч. 0 м.
Продолжительность : 01:00:16.032
Вид битрейта : CBR
Вид битрейта : Постоянный
Битрейт : 640000
Битрейт : 640 Кбит/сек
Каналы : 6
Каналы : 6 каналов
Расположение каналов : Front: L C R, Side: L R, LFE
Расположение каналов : 3/2/0.1
Частота : 48000
Частота : 48,0 КГц
Количество образцов : 173569536
Разрешение : 16
Разрешение : 16 бит
Битовая глубина : 16
Битовая глубина : 16 бит
Метод сжатия : Lossy
Метод сжатия : С потерями
Задержка : 0
Задержка : 00:00:00.000
Задержка в оригинале : Container
Задержка в оригинале : Контейнер
Задержка видео : 0
Задержка видео : 0
Размер потока : 289282560
Размер потока : 276 Мбайт (6%)
Размер потока : 276 Мбайт
Размер потока : 276 Мбайт
Размер потока : 276 Мбайт
Размер потока : 275,9 Мбайт
Размер потока : 276 Мбайт (6%)
Пропорции потока : 0.06029
Язык : en
Язык : English
Язык : English
Язык : en
Язык : eng
Язык : en
Default : No
Default : Нет
Forced : No
Forced : Нет
bsid : 8
dialnorm : -31
dialnorm/String : -31 dB
acmod : 7
lfeon : 1
dialnorm_Average : -31
dialnorm_Average/String : -31 dB
dialnorm_Minimum : -31
dialnorm_Minimum/String : -31 dB
dialnorm_Maximum : -31
dialnorm_Maximum/String : -31 dB
dialnorm_Count : 2

Меню
Кол-во : 81
Кол-во потоков такого типа : 1
Тип потока : Menu
Тип потока : Меню
Идентификатор типа потока : 0
Chapters_Pos_Begin : 75
Chapters_Pos_End : 81
00:00:00.000 : :1
00:06:09.244 : :2
00:18:26.272 : :3
00:29:48.620 : :4
00:41:35.243 : :5
00:52:05.956 : :6

piratbit.org



Скачать Юго-западная Америка 3D: От Долины смерти до Гранд-каньона через торрент http://s018.radikal.ru/i511/1309/4c/5e8f2bde859b.jpg Скачать фильм Юго-западная Америка 3D: От Долины смерти до Гранд-каньона через торрент бесплантно в хорошем качестве Описание: Дикий Запад Соединенных штатов. Край, окруженный мифами и овеянный легендами. Поражающие воображение пустынные ландшафты и ... 8.8 10 14
Info! Золотая раздача, скачанное не засчитывается.
Торрент: Зарегистрирован [2013-09-01 04:13] · скачан: 350 раз
Статус: √ проверено
Размер: 4.47 GB
Как cкачать? Как скачать Юго-западная Америка 3D: От Долины смерти до Гранд-каньона через торрент | qTorrent


>> Регистрируемся здесь <<






Отзывы и комментарии о схеме читаем и пишем здесь: ---> Отзывы и комментарии о схеме

Новые благодарочки в телеграм довольных пользователей:
скриншот   скриншот   скриншот   скриншот   скриншот
    Дорогой пользователь! Огромная просьба, поблагодарите релизера, оцените раздачу и оставьте свои комментарий, если Вы скачали Юго-западная Америка 3D: От Долины смерти до Гранд-каньона через торрент бесплатно! Внесите свою лепту в развитие PiratBit!
    Комментировать посты могут только пользователи прошедшие не сложную регистрацию
    Показать сообщения:    

    Юго-западная Америка 3D: От Долины смерти до Гранд-каньона через торрент
    Скачать бесплатно Юго-западная Америка 3D: От Долины смерти до Гранд-каньона
    Юго-западная Америка 3D: От Долины смерти до Гранд-каньона скачать торрент
    Юго-западная Америка 3D: От Долины смерти до Гранд-каньона смотреть онлайн
    Cкачать фильм Юго-западная Америка 3D: От Долины смерти до Гранд-каньона бесплатно
    Юго-западная Америка 3D: От Долины смерти до Гранд-каньона скачать торрент в хорошем качестве
    Юго-западная Америка 3D: От Долины смерти до Гранд-каньона смотреть онлайн бесплатно в хорошем качестве


    Вы не можете начинать темы
    Вы не можете отвечать на сообщения
    Вы не можете редактировать свои сообщения
    Вы не можете удалять свои сообщения
    Вы не можете голосовать в опросах
    Вы не можете прикреплять файлы к сообщениям
    Вы можете скачивать файлы