Доктор Стрэндж

Лицензия

Добыча

Дубляж

Дом дракона

1 сезон

Тор

Дубляж

В эфире

Дубляж

Там, где раки поют

MVO

Властелин колец

1 сезон

Ultimate

pack

Рекомендуем

30

Пиратка

ВАЖНО

ВАЖНО

Ghostwire

Пиратка

jed

RePack

nioh2

RePack

RDR2

RePack

NEED FOR SPEED™ PAYBACK

RePack

скачать торрент

Кинопоиск HD

Острые козырьки 6 сезон

6 сезон

FAR CRY 6

RePack

скачать торрент

Лицензия

скачать торрент

MVO

1

1 сезон

скачать торрент

1 сезон

скачать торрент

Лицензия

  

Мертвеход / The Revenant (Д. Керри Прайор / D. Kerry Prior) [2009, США, ужасы, комедия, BDRip 720p] MVO (ViruseProject) + original (eng) + sub (rus, eng)

Мертвеход через торрент piratbit.org

Размер: 6.25 GB | Добавлен: 9 лет 2 мес. назад | Торрент скачан:208 раз
Смотреть онлайн | Скачать   

01-09-2013 17:08 Мертвеход Скачать торрент  

Мертвеход / The Revenant

«What could be worse than having your best friend die?»

  • Год выпуска:2009
  • Страна:США
  • Жанр:ужасы, комедия

  • Продолжительность: 01:57:52
  • Перевод:Любительский (многоголосый закадровый)ViruseProject

  • Субтитры: русские, английские, английские комментарии softsub (SRT)
    • Режиссер:Д. Керри Прайор / D. Kerry Prior
    • Сценарий: Д. Керри Прайор / D. Kerry Prior
    • Продюсер: Д. Керри Прайор / D. Kerry Prior, Дон Данн / Don Dunn, Лайам Финн / Liam Finn, Sarah-Raquel Jimenez, Жак Телемак / Jacques Thelemaque

  • В ролях:Дэвид Андерс (Bart Gregory), Крис Уайлд (Joey Luebner), Луиз Гриффитс (Janet), Джеси Кинг (Mathilda), Эрик Пэйн (Baily), Бернардо Бадилло (Palance), Теда Рейчман (Bart's Parents), Ричард Рейчман (Bart's Parents), Уолли Уайт (Minister), Флойд Ван Баскирк (Mourner), Марк Елиас (Mourner), Зои Симпсон (Mourner)
    • Описание:
      Как вы поступите, если ваш лучший друг погибнет? Будете горевать, утешать его родственников, похороните его... И продолжите жить дальше, так как жизнь не стоит на месте... Но что вы будете делать, если ваш погибший друг вернется? Причем вернется он, как говорится, в здравом уме и твердой памяти...

  • Рейтинг
    kinopoisk.ru: 6.281 (911)
    imdb.com: 6.30 (5141)
    MPAA: R - Лицам до 17 лет обязательно присутствие взрослого

    • Качество:BDRip 720p
    • Формат:MKV
    • Видео кодек: AVC
    • Аудио кодек:DTS
    • Видео: AVC, 1280x544 (2.35:1), 4575 kbps, 23,976 fps, 0,274 bpp
    • Аудио №1: русский / DTS / 5.1 / 48 kHz / 1510 kbps / 24 bit ||
    • Аудио №2: английский / DTS / 5.1 / 48 kHz / 1510 kbps / 24 bit


    General
    Unique ID : 192642354248002065988595029683533452522 (0x90ED915F4BB7B3B484A0A2CC446314EA)
    Complete name : D:ТорентыThe.Revenant.2009.720p.BDRip.Rus.Eng.mkv
    Format : Matroska
    Format version : Version 2
    File size : 6.25 GiB
    Duration : 1h 57mn
    Overall bit rate : 7 592 Kbps
    Encoded date : UTC 2012-02-01 11:13:13
    Writing application : mkvmerge v5.2.0 ('I can't explain') built on Dec 18 2011 18:12:03
    Writing library : libebml v1.2.3 + libmatroska v1.3.0

    Video
    ID : 1
    Format : AVC
    Format/Info : Advanced Video Codec
    Format profile : High@L4.1
    Format settings, CABAC : Yes
    Format settings, ReFrames : 12 frames
    Codec ID : V_MPEG4/ISO/AVC
    Duration : 1h 57mn
    Bit rate : 4 575 Kbps
    Width : 1 280 pixels
    Height : 544 pixels
    Display aspect ratio : 2.35:1
    Frame rate : 23.976 fps
    Color space : YUV
    Chroma subsampling : 4:2:0
    Bit depth : 8 bits
    Scan type : Progressive
    Bits/(Pixel*Frame) : 0.274
    Stream size : 3.64 GiB (58%)
    Title : The.Revenant.2009.BluRay.720p.DTS.x264-CHD
    Writing library : x264 core 119 r2106 07efeb4
    Encoding settings : cabac=1 / ref=12 / deblock=1:-3:-3 / analyse=0x3:0x113 / me=umh / subme=10 / psy=1 / psy_rd=1.10:0.15 / mixed_ref=1 / me_range=32 / chroma_me=1 / trellis=2 / 8x8dct=1 / cqm=2 / deadzone=21,11 / fast_pskip=0 / chroma_qp_offset=-2 / threads=12 / sliced_threads=0 / nr=0 / decimate=1 / interlaced=0 / bluray_compat=0 / constrained_intra=0 / bframes=6 / b_pyramid=2 / b_adapt=2 / b_bias=0 / direct=3 / weightb=1 / open_gop=0 / weightp=2 / keyint=250 / keyint_min=23 / scenecut=40 / intra_refresh=0 / rc_lookahead=60 / rc=2pass / mbtree=1 / bitrate=4575 / ratetol=1.0 / qcomp=0.60 / qpmin=1 / qpmax=63 / qpstep=4 / cplxblur=20.0 / qblur=0.5 / vbv_maxrate=40000 / vbv_bufsize=30000 / nal_hrd=none / ip_ratio=1.40 / aq=1:0.80
    Language : English
    Default : Yes
    Forced : No

    Audio #1
    ID : 2
    Format : DTS
    Format/Info : Digital Theater Systems
    Codec ID : A_DTS
    Duration : 1h 57mn
    Bit rate mode : Constant
    Bit rate : 1 510 Kbps
    Channel(s) : 6 channels
    Channel positions : Front: L C R, Side: L R, LFE
    Sampling rate : 48.0 KHz
    Bit depth : 24 bits
    Compression mode : Lossy
    Stream size : 1.24 GiB (20%)
    Title : MVO DTS 5.1 1536 kbps
    Language : Russian
    Default : Yes
    Forced : No

    Audio #2
    ID : 3
    Format : DTS
    Format/Info : Digital Theater Systems
    Codec ID : A_DTS
    Duration : 1h 57mn
    Bit rate mode : Constant
    Bit rate : 1 510 Kbps
    Channel(s) : 6 channels
    Channel positions : Front: L C R, Side: L R, LFE
    Sampling rate : 48.0 KHz
    Bit depth : 24 bits
    Compression mode : Lossy
    Stream size : 1.24 GiB (20%)
    Title : Original DTS 5.1 1536 kbps
    Language : English
    Default : No
    Forced : No

    Text #1
    ID : 4
    Format : UTF-8
    Codec ID : S_TEXT/UTF8
    Codec ID/Info : UTF-8 Plain Text
    Language : Russian
    Default : Yes
    Forced : No

    Text #2
    ID : 5
    Format : UTF-8
    Codec ID : S_TEXT/UTF8
    Codec ID/Info : UTF-8 Plain Text
    Language : English
    Default : No
    Forced : No

    Text #3
    ID : 6
    Format : UTF-8
    Codec ID : S_TEXT/UTF8
    Codec ID/Info : UTF-8 Plain Text
    Title : Commentary
    Language : English
    Default : No
    Forced : No


    © Оформление by Vetal



  • Скачать Мертвеход через торрент http://i4-imageban-ru.translate.goog/out/2013/09/01/13cdee86a3e4f132c9768d582d9239c5.png Скачать, смотреть онлайн Мертвеход бесплантно в хорошем качестве Описание:Как вы поступите, если ваш лучший друг погибнет? Будете горевать, утешать его родственников, похороните его... И продолжите жить ... 9.9 10 14
    Info! Золотая раздача, скачанное не засчитывается.
    Торрент: Зарегистрирован [2013-09-01 17:08] · скачан: 208 раз
    Статус: √ проверено
    Размер: 6.25 GB
    Как cкачать? Как скачать Мертвеход через торрент | UTorrent

    % Раздел Тема Автор DL S | L
    Фильмы 2009 [ 1.45 GB ] Мертвеход / The Revenant | MVO | HDRip Ворон Скачать
    1 | 0
    Фильмы 2009 [ 2.18 GB ] Мертвеход / The Revenant | MVO | HDRip Ворон Скачать
    1 | 0
    Фильмы 2009 [ 778 MB ] Мертвеход / The Revenant | | DVDRip VintMosina Скачать
    1 | 0

    28-11-2019 20:33  


    Отключить вcю реклaмy на сайте, в т.ч. и в плеере онлайн просмотра!

    02-09-2013 09:12 Мертвеход Скачать торрент  

    Нормальный фильм один раз посмотреть можно и нужно!!!
    ........Только я не понял чего за телка голая и без головы кто она??



      Дорогой пользователь! Огромная просьба, поблагодарите релизера, оцените раздачу и оставьте свои комментарий, если Вы скачали Мертвеход через торрент бесплатно!!
      Комментировать посты могут только пользователи прошедшие не сложную регистрацию
      Показать сообщения:    


      Мертвеход через торрент
      Скачать бесплатно Мертвеход
      Мертвеход скачать торрент
      Мертвеход смотреть онлайн
      Cкачать фильм Мертвеход бесплатно
      Мертвеход скачать торрент в хорошем качестве
      Мертвеход смотреть онлайн бесплатно в хорошем качестве
      Вы не можете начинать темы
      Вы не можете отвечать на сообщения
      Вы не можете редактировать свои сообщения
      Вы не можете удалять свои сообщения
      Вы не можете голосовать в опросах
      Вы не можете прикреплять файлы к сообщениям
      Вы можете скачивать файлы
      Мертвеход / The Revenant [2009, США, ужасы, комедия, BDRip 720p] MVO + original + sub смотреть онлайн, скачать торрент picoco.icu