Ссылка на приватное зеркало нашего сайта всего за 1$. Внимание количество ограничено!!!

2 сезон

iTunes

iTunes

1

iTunes

iTunes

iTunes

WEBRip

iTunes

30
pack

Вам бонус

ВАЖНО

!!Акция!!

Alien_RageХит недели

RePack

Horizon Zero Dawn

ИГРА 18+

pack

RePack

jed

!!Акция!!

Alien_Rage

RePack

fifa19

RePack

Assassins Creed: Odyssey

RePack

NEED FOR SPEED™ PAYBACK

4 сезон

9 сезон

Бесстыжие 9 сезон

Все сериалы

все сериалы на PB.wtf

RePack

FAR CRY 5
  

Последняя зима / The Last Winter (Ларри Фесенден) [2006, ужасы, триллер , HDRip,DVO (НТВ)] piratbit.org

Последняя зима через торрент piratbit.org

Размер: 744 MB | Добавлен: 7 лет назад | Торрент скачан:109 раз
Скачать  

06-09-2013 05:54 Последняя зима Скачать торрент  


Последняя зима / The Last Winter

«What if mankind only had one season left on Earth?»

Год выпуска: 2006
Страна: США , Исландия
Жанр: ужасы, триллер
Продолжительность: 01:36:53
Перевод: Профессиональный (двухголосый закадровый) (НТВ)

Режиссер: Ларри Фесенден
Сценарий: Ларри Фесенден, Роберт Ливер
Продюсер: Ларри Фесенден, Джеффри Леви-Хинте, Кристен Кусама, ...

В ролях: Рон Перлман / Ron Perlman (Ed Pollack), Джеймс ЛеГрос / James LeGros (в титрах: James LeGros) (James Hoffman), Конни Бриттон / Connie Britton (Abby Sellers), Зак Гилфорд / Zach Gilford (Maxwell McKinder), Кевин Корригэн / Kevin Corrigan (Motor), Джэми Харольд / Jamie Harrold (Elliot Jenkins), Пато Хоффманн / Pato Hoffmann (Lee Means), Джоан Шенандо / Joanne Shenandoah (Dawn Russell)


Описание: Нефтяная компания направляет на Северную Аляску группу для наладки оборудования. Раньше другая компания уже проводила здесь пробные бурения, но по непонятным причинам свернула работы, оставив на их месте странный металлический бокс. Очень скоро все понимают, что в лагере творится неладное и для выживания придётся приложить все усилия.

СЭМПЛ

Качество: HDRip
Формат: AVI
Видео кодек: XviD
Аудио кодек: MP3
Видео: 688x288 (2.35:1), 25.000 fps, XviD, 935 Kbps
Аудио: Аудио #1: MP3 , 128 Kbps, 48.0 KHz, 2 ch

Код:

General
Complete name                    : Poslednyaya.Zima.avi
Format                           : AVI
Format/Info                      : Audio Video Interleave
File size                        : 744 MiB
Duration                         : 1h 36mn
Overall bit rate                 : 1 073 Kbps
Writing application              : VirtualDubMod 1.5.4.1 (build 2178/release)
Writing library                  : VirtualDubMod build 2178/release

Video
ID                               : 0
Format                           : MPEG-4 Visual
Format profile                   : Advanced Simple@L5
Format settings, BVOP            : Yes
Format settings, QPel            : No
Format settings, GMC             : No warppoints
Format settings, Matrix          : Custom
Codec ID                         : XVID
Codec ID/Hint                    : XviD
Duration                         : 1h 36mn
Bit rate                         : 935 Kbps
Width                            : 688 pixels
Height                           : 288 pixels
Display aspect ratio             : 2.35:1
Frame rate                       : 25.000 fps
Color space                      : YUV
Chroma subsampling               : 4:2:0
Bit depth                        : 8 bits
Scan type                        : Progressive
Bits/(Pixel*Frame)               : 0.189
Stream size                      : 648 MiB (87%)
Writing library                  : XviD 1.2.1 (UTC 2008-12-04)

Audio
ID                               : 1
Format                           : MPEG Audio
Format version                   : Version 1
Format profile                   : Layer 3
Codec ID                         : 55
Codec ID/Hint                    : MP3
Duration                         : 1h 36mn
Bit rate mode                    : Constant
Bit rate                         : 128 Kbps
Channel(s)                       : 2 channels
Sampling rate                    : 48.0 KHz
Stream size                      : 88.7 MiB (12%)
Alignment                        : Aligned on interleaves
Interleave, duration             : 40 ms (1.00 video frame)
Interleave, preload duration     : 504 ms
Writing library                  : LAME3.98r
Encoding settings                : -m s -V 4 -q 0 -lowpass 17 -b 128







piratbit.org



Скачать Последняя зима через торрент http://pic.kartinco.top/images/3/tnnz6uvegr.jpg Скачать фильм Последняя зима через торрент бесплантно в хорошем качестве Описание: Нефтяная компания направляет на Северную Аляску группу для наладки оборудования. Раньше другая компания уже проводила здесь ... 9 10 5
Info! Золотая раздача, скачанное не засчитывается.
Торрент: Зарегистрирован [2013-09-06 05:54] · скачан: 109 раз
Статус: √ проверено
Размер: 744 MB
Как cкачать? Как скачать Последняя зима через торрент | qTorrent

% Раздел Тема Автор DL S | L
Фильмы 2006-2008 [ 1.29 GB ] Последняя зима / The Last Winter [2006 HDRip] Sудья Скачать
1 | 0

28-11-2019 20:33  

Отключить всю рекламу на сайте

    Дорогой пользователь! Огромная просьба, поблагодарите релизера, оцените раздачу и оставьте свои комментарий, если Вы скачали Последняя зима через торрент бесплатно! Внесите свою лепту в развитие PiratBit!
    Комментировать посты могут только пользователи прошедшие не сложную регистрацию
    Показать сообщения:    

    Последняя зима через торрент
    Скачать бесплатно Последняя зима
    Последняя зима скачать торрент
    Последняя зима смотреть онлайн
    Cкачать фильм Последняя зима бесплатно
    Последняя зима скачать торрент в хорошем качестве
    Последняя зима смотреть онлайн бесплатно в хорошем качестве


    Вы не можете начинать темы
    Вы не можете отвечать на сообщения
    Вы не можете редактировать свои сообщения
    Вы не можете удалять свои сообщения
    Вы не можете голосовать в опросах
    Вы не можете прикреплять файлы к сообщениям
    Вы можете скачивать файлы