1 сезон

1 сезон

iTunes

1

iTunes

Кинопоиск HD

iTunes

13

1 сезон

RePack

30

Deluxe

ВАЖНО

ИГРА 18+

pack

RePack

MK11
pack

Легкие деньги

RePack

jed

RePack

fifa19

RePack

RDR2

RePack

NEED FOR SPEED™ PAYBACK

4 сезон

9 сезон

Бесстыжие 9 сезон

Все сериалы

все сериалы на PB.wtf

RePack

FAR CRY 5
  
Magnet ссылка

Они / They (Роберт Хармон / Robert Harmon) [2002, США, Канада, ужасы, триллер, детектив, BDRip, Профессиональный (многоголосый, закадровый) piratbit.org

Они через торрент piratbit.org

Размер: 1.45 GB | Добавлен: 7 лет 7 мес. назад | Торрент скачан:143 раза
Скачать  

14-09-2013 16:49 Они Скачать торрент  

Они / They

«Sore wa noroi no kokuin. Kesshite nigerarenai [Япония]»

  • Год выпуска:2002
  • Страна:США, Канада
  • Жанр:ужасы, триллер, детектив

  • Продолжительность: 01:29:55
  • Перевод:Профессиональный (многоголосый, закадровый) R5

  • Субтитры: русские (SDH), английские(отдельно)
    • Режиссер:Роберт Хармон / Robert Harmon
    • Сценарий: Брендан Худ / Brendan Hood
    • Продюсер: Том Энгелман / Tom Engelman, Скотт Крупф / Scott Kroopf, Тони Блэйн / Tony Blain, Тед Филд / Ted Field, Барбара Келли / Barbara Kelly

  • В ролях:Лаура Риган (Julia Lund), Марк Блукас (Paul Loomis), Итэн Эмбри (Sam Burnside), Дагмара Доминчук (Terry Alba), Джон Абрахамс (Billy Parks), Александр Гоулд (Young Billy), Дезире Зуровски (Mary Parks), Марк Хилдрет (Troy), Джонатан Черри (Darren), Питер ЛаКруа (David Parks), Джессика Эмли (Young Julia), Джей Бразо (Dr. Booth)
    • Описание:
      Джулия Лундис с виду хорошо уравновешенная молодая женщина, готовящаяся получить степень магистра психологии. Однажды ночью она получает звонок от своего друга детства Билли. Билли сообщает Джулии, что ночные монстры, которые мучили их обоих в детстве, вернулись.
      Прежде чем Джулия смогла его успокоить, Билли застрелился. Приехав на похороны, Джулия разговаривает с друзьями Билли по колледжу, которые говорят, что в детстве их тоже мучили кошмары. Уже находясь в напряжении перед защитой диплома, Джулия должна теперь бороться со сверхъестественным злом, угрожающим ее жизни...

  • Рейтинг
    kinopoisk.ru: 5.316 (654)
    imdb.com: 4.70 (8913)
    MPAA: PG-13 - Детям до 13 лет просмотр не желателен

      Автор рипа: yaroslaigor
    • Качество:BDRip
    • Формат:AVI
    • Видео кодек: XviD
    • Аудио кодек:AC3
    • Видео: XviD, 720x304 (2.35:1), 1921 kbps, 23,976 fps, 0,366 bpp
    • Аудио: AC3 / 5.1 / 48 kHz / 384 kbps / 16 bit(RUS)
    • Аудио #2: 48 kHz, AC3 Dolby Digital, 3/2 (L,C,R,l,r) + LFE ch, ~384 kbps avg Оригинал (английский)


    General
    Complete name : D:ТорентыOni.2002.RUS.BDRip.XviD.AC3.-HQCLUB.avi
    Format : AVI
    Format/Info : Audio Video Interleave
    File size : 1.45 GiB
    Duration : 1h 29mn
    Overall bit rate : 2 314 Kbps
    Movie name : Они / They (2002) BDRip
    Director : yaroslaigor
    Genre : ужасы, триллер, детектив
    Writing application : VirtualDubMod 1.5.10.2 (build 2542/release)

    Comment : 27.07.2013

    Video
    ID : 0
    Format : MPEG-4 Visual
    Format profile : Advanced Simple@L5
    Format settings, BVOP : 1
    Format settings, QPel : No
    Format settings, GMC : No warppoints
    Format settings, Matrix : Custom
    Codec ID : XVID
    Codec ID/Hint : XviD
    Duration : 1h 29mn
    Bit rate : 1 921 Kbps
    Width : 720 pixels
    Height : 304 pixels
    Display aspect ratio : 2.35:1
    Frame rate : 23.976 fps
    Color space : YUV
    Chroma subsampling : 4:2:0
    Bit depth : 8 bits
    Scan type : Progressive
    Compression mode : Lossy
    Bits/(Pixel*Frame) : 0.366
    Stream size : 1.21 GiB (83%)
    Writing library : XviD 65

    Audio
    ID : 1
    Format : AC-3
    Format/Info : Audio Coding 3
    Mode extension : CM (complete main)
    Codec ID : 2000
    Duration : 1h 29mn
    Bit rate mode : Constant
    Bit rate : 384 Kbps
    Channel(s) : 6 channels
    Channel positions : Front: L C R, Side: L R, LFE
    Sampling rate : 48.0 KHz
    Bit depth : 16 bits
    Compression mode : Lossy
    Stream size : 247 MiB (17%)
    Alignment : Split accross interleaves
    Interleave, duration : 42 ms (1.00 video frame)
    Interleave, preload duration : 500 ms


    © Оформление by Vetalpiratbit.org



  • Скачать Они через торрент https://pic1.kartinco.top/images/23/g4oe9ql7d1.png Скачать фильм Они через торрент бесплантно в хорошем качестве Описание:Джулия Лундис с виду хорошо уравновешенная молодая женщина, готовящаяся получить степень магистра психологии. Однажды ночью она ... 7.7 10 6
    Info! Золотая раздача, скачанное не засчитывается.
    Торрент: Зарегистрирован [2013-09-14 16:49] · скачан: 143 раз
    Статус: √ проверено
    Размер: 1.45 GB
    Как cкачать? Как скачать Они через торрент | UTorrent

    % Раздел Тема Автор DL S | L
    Фильмы (WEB-DL 720p, 1080p) [ 6.65 GB ] Сначала они убили моего отца / Дочь Камбоджи помнит / First They Killed My Father [2017 биография история WEB-DL 1080p] [MVO] killermax2013 Скачать
    2 | 0
    Зарубежные сериалы [ 11.45 GB ] Когда они нас увидят / When They See Us / Сезон: 1 / Серии: 1-4 из 4 [2019 WEBRip 1080p] [MVO] killermax2013 Скачать
    1 | 0
    Военное дело [ 2.93 GB ] Они никогда не станут старше / They Shall Not Grow Old [2018 Документальный военный исторический BDRip-AVC] MVO [Jaskier HDRezka Studio] - ExKinoRay Enigma2010 Скачать
    16 | 0
    Зарубежные сериалы [ 27.36 GB ] Когда они нас увидят / When They See Us / Сезон: 1 / Серии: 1-4 из 4 [2019 WEBRip 1080p] MVO [TVShows] bober100 Скачать
    1 | 0
    Фильмы до 2000 г. [ 1.44 GB ] Они зовут меня Брюсом / Меня прозвали Брюсом / They Call Me Bruce? [1982 WEB-DLRip] [DVO] killermax2013 Скачать
    1 | 0
    T Фильмы (мультфильмы) cо спонсором показа (Новинки AVI/MKV) [ 1.36 GB ] Они скрываются в тени / They Live in the Shadows [2018 WEB-DLRip] MVO ["Синема УС"] bober100 Скачать
    1 | 0
    T Фильмы (мультфильмы) cо спонсором показа (Новинки AVI/MKV) [ 3.12 GB ] Они скрываются в тени / They Live in the Shadows [2018 WEB-DL 720p] MVO ["Синема УС"] bober100 Скачать
    1 | 0

    28-11-2019 20:33  

    Отключить всю рекламу на сайте

      Дорогой пользователь! Огромная просьба, поблагодарите релизера, оцените раздачу и оставьте свои комментарий, если Вы скачали Они через торрент бесплатно! Внесите свою лепту в развитие PiratBit!
      Комментировать посты могут только пользователи прошедшие не сложную регистрацию
      Показать сообщения:    

      Они через торрент
      Скачать бесплатно Они
      Они скачать торрент
      Они смотреть онлайн
      Cкачать фильм Они бесплатно
      Они скачать торрент в хорошем качестве
      Они смотреть онлайн бесплатно в хорошем качестве


      Вы не можете начинать темы
      Вы не можете отвечать на сообщения
      Вы не можете редактировать свои сообщения
      Вы не можете удалять свои сообщения
      Вы не можете голосовать в опросах
      Вы не можете прикреплять файлы к сообщениям
      Вы можете скачивать файлы