Доктор Стрэндж

Лицензия

Добыча

Дубляж

Дом дракона

1 сезон

Тор

Дубляж

В эфире

Дубляж

Там, где раки поют

MVO

Властелин колец

1 сезон

Ultimate

pack

Рекомендуем

30

Пиратка

ВАЖНО

ВАЖНО

Ghostwire

Пиратка

jed

RePack

nioh2

RePack

RDR2

RePack

NEED FOR SPEED™ PAYBACK

RePack

скачать торрент

Кинопоиск HD

Острые козырьки 6 сезон

6 сезон

FAR CRY 6

RePack

скачать торрент

Лицензия

скачать торрент

MVO

1

1 сезон

скачать торрент

1 сезон

скачать торрент

Лицензия

  

Связи нет / Disconnect (Генри Алекс Рубин / Henry Alex Rubin) [2012, США, триллер, драма, BDRip 1080p, Любительский (одноголосый)|VANO|

Связи нет через торрент piratbit.org

Размер: 11.24 GB | Добавлен: 9 лет 2 мес. назад | Торрент скачан:80 раз
Смотреть онлайн | Скачать   

17-09-2013 11:22 Связи нет Скачать торрент  

Связи нет / Disconnect

«Look Up»

  • Год выпуска:2012
  • Страна:США
  • Жанр:триллер, драма

  • Продолжительность: 01:55:39
  • Перевод:Любительский (одноголосый) |VANO|

  • Субтитры: Английский, голландский
    • Режиссер:Генри Алекс Рубин / Henry Alex Rubin
    • Сценарий: Эндрю Штерн / Andrew Stern
    • Продюсер: Уильям Хорберг / William Horberg, Мики Лиделл / Mickey Liddell, Дженнифер Хилтон / Jennifer Monroe, Скотт Фергюсон / Scott Ferguson, Линн Гивенс / Lynn Givens

  • В ролях:Джейсон Бейтман (Rich Boyd), Хоуп Дэвис (Lydia Boyd), Фрэнк Грилло (Mike Dixon), Микаэл Нюквист (Stephen Schumacher), Пола Пэттон (Cindy Hull), Андреа Райзборо (Nina Dunham), Александр Скарсгард (Derek Hull), Макс Тириот (Kyle), Колин Форд (Jason Dixon), Джона Бобо (Ben Boyd), Хейли Рэмм (Abby Boyd), Норберт Лео Батц (Peter)
    • Описание:
      Рассказ идет про группу современных людей, которые пытаются наладить взаимоотношения с окружающими на фоне «проводного» мира современных технологий. Это самая большая загадка человечества - почему новейшие технологии, призванные объединять людей, на самом деле создают огромную пропасть между ними.

  • Рейтинг
    kinopoisk.ru: 7.435 (153)
    imdb.com: 7.20 (2736)
    MPAA: R - Лицам до 17 лет обязательно присутствие взрослого
    • Качество:BDRip 1080p
    • Формат:MKV
    • Видео кодек: XviD
    • Аудио кодек:AVC
    • Видео: AVC, 1920x1036 (1.853), 12318 kbps, 23,976 fps, 0,258 bpp
    • Аудио №1: русский / AC3 / 5.1 / 48 kHz / 448 kbps / 16 bit || - одноголосый закадровый
      Аудио №2: английский / AC3 / 5.1 / 48 kHz / 640 kbps / 16 bit
      Аудио №3: английский / AC3 / 2.0 / 48 kHz / 224 kbps / 16 bit
    - Commentary with Director Henry-Alex Rubin

    Сохранены оригинальные чаптеры как на Blu-Ray
    General
    Unique ID : 170229300852955766511051289032481934157 (0x8010F885DB25965FAA4F020670518B4D)
    Complete name : D:ТорентыDisconnect.2012.BluRay.1080p.Cinemania.cc.mkv
    Format : Matroska
    Format version : Version 4 / Version 2
    File size : 11.2 GiB
    Duration : 1h 55mn
    Overall bit rate : 13.9 Mbps
    Movie name : CINEMANIA.CC
    Encoded date : UTC 2013-09-15 16:49:29
    Writing application : mkvmerge v6.3.0 ('You can't stop me!') built on Jun 28 2013 20:09:41
    Writing library : libebml v1.3.0 + libmatroska v1.4.0

    Video
    ID : 1
    Format : AVC
    Format/Info : Advanced Video Codec
    Format profile : High@L4.1
    Format settings, CABAC : Yes
    Format settings, ReFrames : 4 frames
    Codec ID : V_MPEG4/ISO/AVC
    Duration : 1h 55mn
    Bit rate : 12.3 Mbps
    Width : 1 920 pixels
    Height : 1 036 pixels
    Display aspect ratio : 1.853
    Frame rate : 23.976 fps
    Color space : YUV
    Chroma subsampling : 4:2:0
    Bit depth : 8 bits
    Scan type : Progressive
    Bits/(Pixel*Frame) : 0.258
    Stream size : 9.95 GiB (89%)
    Title : CINEMANIA.CC
    Writing library : x264 core 135 r2345 f0c1c53
    Encoding settings : cabac=1 / ref=4 / deblock=1:-3:-3 / analyse=0x3:0x113 / me=umh / subme=10 / psy=1 / psy_rd=0.90:0.00 / mixed_ref=1 / me_range=24 / chroma_me=1 / trellis=2 / 8x8dct=1 / cqm=0 / deadzone=21,11 / fast_pskip=0 / chroma_qp_offset=-2 / threads=12 / lookahead_threads=2 / sliced_threads=0 / nr=0 / decimate=0 / interlaced=0 / bluray_compat=0 / constrained_intra=0 / bframes=8 / b_pyramid=2 / b_adapt=2 / b_bias=0 / direct=3 / weightb=1 / open_gop=0 / weightp=2 / keyint=250 / keyint_min=23 / scenecut=40 / intra_refresh=0 / rc=crf / mbtree=0 / crf=16.5 / qcomp=0.55 / qpmin=0 / qpmax=69 / qpstep=4 / ip_ratio=1.30 / pb_ratio=1.30 / aq=1:0.90 / zones=160606,166398,crf=30
    Language : English
    Default : Yes
    Forced : No

    Audio #1
    ID : 2
    Format : AC-3
    Format/Info : Audio Coding 3
    Mode extension : CM (complete main)
    Codec ID : A_AC3
    Duration : 1h 55mn
    Bit rate mode : Constant
    Bit rate : 448 Kbps
    Channel(s) : 6 channels
    Channel positions : Front: L C R, Side: L R, LFE
    Sampling rate : 48.0 KHz
    Bit depth : 16 bits
    Compression mode : Lossy
    Stream size : 371 MiB (3%)
    Title : VANO
    Language : Russian
    Default : Yes
    Forced : Yes

    Audio #2
    ID : 3
    Format : AC-3
    Format/Info : Audio Coding 3
    Mode extension : CM (complete main)
    Codec ID : A_AC3
    Duration : 1h 55mn
    Bit rate mode : Constant
    Bit rate : 640 Kbps
    Channel(s) : 6 channels
    Channel positions : Front: L C R, Side: L R, LFE
    Sampling rate : 48.0 KHz
    Bit depth : 16 bits
    Compression mode : Lossy
    Stream size : 529 MiB (5%)
    Language : English
    Default : No
    Forced : No

    Audio #3
    ID : 4
    Format : AC-3
    Format/Info : Audio Coding 3
    Format profile : Dolby Digital
    Mode extension : CM (complete main)
    Codec ID : A_AC3
    Duration : 1h 55mn
    Bit rate mode : Constant
    Bit rate : 224 Kbps
    Channel(s) : 2 channels
    Channel positions : Front: L R
    Sampling rate : 48.0 KHz
    Bit depth : 16 bits
    Compression mode : Lossy
    Stream size : 185 MiB (2%)
    Title : Commentary with Director Henry-Alex Rubin
    Language : English
    Default : No
    Forced : No

    Text #1
    ID : 5
    Format : UTF-8
    Codec ID : S_TEXT/UTF8
    Codec ID/Info : UTF-8 Plain Text
    Language : English
    Default : No
    Forced : No

    Text #2
    ID : 6
    Format : PGS
    Muxing mode : zlib
    Codec ID : S_HDMV/PGS
    Codec ID/Info : The same subtitle format used on BDs/HD-DVDs
    Title : .sup
    Language : English
    Default : No
    Forced : No

    Text #3
    ID : 7
    Format : PGS
    Muxing mode : zlib
    Codec ID : S_HDMV/PGS
    Codec ID/Info : The same subtitle format used on BDs/HD-DVDs
    Title : SDH .sup
    Default : No
    Forced : No

    Menu
    00:00:00.000 : en:00:00:00.000
    00:07:07.344 : en:00:07:07.344
    00:13:45.158 : en:00:13:45.158
    00:19:52.316 : en:00:19:52.316
    00:24:54.868 : en:00:24:54.868
    00:29:57.254 : en:00:29:57.254
    00:37:49.267 : en:00:37:49.267
    00:45:17.465 : en:00:45:17.465
    00:51:18.450 : en:00:51:18.450
    00:58:34.010 : en:00:58:34.010
    01:04:35.622 : en:01:04:35.622
    01:10:56.961 : en:01:10:56.961
    01:17:00.199 : en:01:17:00.199
    01:22:32.948 : en:01:22:32.948
    01:31:25.438 : en:01:31:25.438
    01:42:54.001 : en:01:42:54.001

    © Оформление by Vetal



  • Скачать Связи нет через торрент http://i2-imageban-ru.translate.goog/out/2013/09/17/88fbb84501e50aafebab7901b10aa53f.png Скачать, смотреть онлайн Связи нет бесплантно в хорошем качестве Описание:Рассказ идет про группу современных людей, которые пытаются наладить взаимоотношения с окружающими на фоне «проводного» мира ... 10 10 4
    Info! Золотая раздача, скачанное не засчитывается.
    Торрент: Зарегистрирован [2013-09-17 11:22] · скачан: 80 раз
    Статус: √ проверено
    Размер: 11.24 GB
    Как cкачать? Как скачать Связи нет через торрент | UTorrent

    % Раздел Тема Автор DL S | L
    Фильмы 2012 [ 1.46 GB ] Связи нет / Disconnect | | HDRip, Любительский (одноголосый Ворон Скачать
    1 | 0

    28-11-2019 20:33  


    Отключить вcю реклaмy на сайте, в т.ч. и в плеере онлайн просмотра!

    17-09-2013 12:20 Связи нет Скачать торрент  

    а перевод когда. проф ожидать или как?



    17-09-2013 12:35 Связи нет Скачать торрент  

    Gorge*
    В кино у нас не показывали и скорей всего дубляжа не будет, лучшее что может быть многоголосый.



      Дорогой пользователь! Огромная просьба, поблагодарите релизера, оцените раздачу и оставьте свои комментарий, если Вы скачали Связи нет через торрент бесплатно!!
      Комментировать посты могут только пользователи прошедшие не сложную регистрацию
      Показать сообщения:    


      Связи нет через торрент
      Скачать бесплатно Связи нет
      Связи нет скачать торрент
      Связи нет смотреть онлайн
      Cкачать фильм Связи нет бесплатно
      Связи нет скачать торрент в хорошем качестве
      Связи нет смотреть онлайн бесплатно в хорошем качестве
      Вы не можете начинать темы
      Вы не можете отвечать на сообщения
      Вы не можете редактировать свои сообщения
      Вы не можете удалять свои сообщения
      Вы не можете голосовать в опросах
      Вы не можете прикреплять файлы к сообщениям
      Вы можете скачивать файлы
      Связи нет / Disconnect [2012, США, триллер, драма, BDRip 1080p, Любительский |VANO| смотреть онлайн, скачать торрент picoco.icu