Доктор Стрэндж

Лицензия

Добыча

MVO

Дом дракона

1 сезон

Тор

Лицензия

Мэверик

Лицензия

Там, где раки поют

MVO

Властелин колец

1 сезон

Ultimate

pack

Рекомендуем

30

Repack

ВАЖНО

ВАЖНО

Ghostwire

RePack

jed

RePack

nioh2

RePack

RDR2

RePack

NEED FOR SPEED™ PAYBACK

RePack

скачать торрент

Кинопоиск HD

Острые козырьки 6 сезон

6 сезон

FAR CRY 6

RePack

скачать торрент

Лицензия

скачать торрент

MVO

1

1 сезон

скачать торрент

1 сезон

скачать торрент

Лицензия

  

Непобедимый (1983) (Юрий Борецкий) [1983 г., история, приключения, боевик, DVDRip]

Непобедимый через торрент piratbit.org

Размер: 700 MB | Добавлен: 9 лет назад | Торрент скачан:124 раза
Смотреть онлайн Непобедимый | Скачать   

19-09-2013 08:07 Непобедимый Скачать торрент  

Непобедимый (1983)
Год выпуска: 1983
Страна: СССР
Жанр: история, приключения, боевик,
Продолжительность: 01:09:13
Субтитры: нет
Язык: Русский
Режиссер: Юрий Борецкий
Продюссер: Алексей Милюхин
Сценарий: Павел Лунгин

Премьера в мире: 13 июля 1983



В ролях: Андрей Ростоцкий, Хамза Умаров, Нурмухан Жантурин, Едгар Сагдиев, Гульнара Дусматова, Биродар Атабаев, Дильшот Измайлов, Николай Карпов, Тухтасын Муратов, Александр Катунин...
Роли дублировали: Николай Граббе, Мария Овчинникова, Рудольф Панков, Владимир Антоник, Даниил Нетребин...,

Описание: Советская Россия 20-х годов. Бывший красноармеец Андрей Хромов, одержимый идеей создания нового вида борьбы — самообороны без оружия, отправляется в Среднюю Азию, чтобы, познакомившись с местными боевыми искусствами, усовершенствовать свое мастерство. Хромов еще не знает, что вскоре оно спасет ему жизнь.



Качество: DVDRip
Формат: AVI
Видео кодек: XviD
Аудио кодек: AC3
Видео: 672x336, 1280 kbps, 25fps
Аудио: 128 kbps, 2.0, 48.0 KHz

Код:

Можно сказать, что фильм «основан на реальных событиях», т. к. о судьбе одного из основателей самбо, Анатолия Аркадьевича Харлампиева ходит такое множество рассказов и историй, что даже его близкие ученики не могут сказать, что из них правда, а что, вымысел.
Как известно, самбо — дисциплина признанная мировым сообществом, включает в себя как спортивное, так и боевое направления. Как известно, самбо — некий конструктор из различных видов национальной борьбы, от дзюдо, до кулеша, любовно собранный единомышленниками, адаптированный под наш национальный характер и приспособленный сначала для нужд Красной армии, а затем и спортивных активистов. Как известно, Харлампиев — потомственный боец и борец в третьем поколении сам объездил в экспедициях республики Советского Союза и прошагал пол Европы и Дальний Восток учась у мастеров единоборств, постигая науку побеждать.

По мотивам этих экспедиций и снят фильм «Непобедимый». 20-е годы XX века. Средняя Азия. Красноармеец Хромов (Харлампиев) постигая национальные единоборства, становится обладателем тетради с секретами боя одного из мастеров. Об этом узнает главарь банды, долгие годы тщательно охотившейся за этой тетрадью.

Главную роль исполняет Андрей Ростоцкий — известный актер и каскадер, трагически погибший при подготовке к очередным съемкам.

Фильм, конечно же с политической заправкой: есть хорошие «красные» и есть плохие басмачи, но он не о Гражданской войне, а о деле всей жизни, как сейчас модно говорить, «пути воина» увлеченного человека. На идеологические составляющие фильма обращать внимания не стоит. Тогда по-другому снять было нельзя.

Фильм позитивный. Один из любимейших для мальчишек 80-х. Многие именно после него выбрали этот спорт.
8 из 10


скриншот   скриншот   скриншот   скриншот   скриншот   скриншот  





General
Complete name : E:ФильмыДля РаздачNepobedimiy.1983.O.Rus.DVDRip.avi
Format : AVI
Format/Info : Audio Video Interleave
File size : 700 MiB
Duration : 1h 9mn
Overall bit rate : 1 415 Kbps
Writing application : VirtualDubMod 1.5.4.1 (build 2178/release)
Copyright : DVDRip

Video
ID : 0
Format : MPEG-4 Visual
Format profile : Streaming Video@L1
Format settings, BVOP : Yes
Format settings, QPel : No
Format settings, GMC : No warppoints
Format settings, Matrix : Custom
Codec ID : XVID
Codec ID/Hint : XviD
Duration : 1h 9mn
Bit rate : 1 280 Kbps
Width : 672 pixels
Height : 336 pixels
Display aspect ratio : 2.000
Frame rate : 25.000 fps
Resolution : 24 bits
Colorimetry : 4:2:0
Scan type : Progressive
Bits/(Pixel*Frame) : 0.227
Stream size : 634 MiB (90%)
Writing library : XviD 1.2.1 (UTC 2008-12-04)

Audio
ID : 1
Format : AC-3
Format/Info : Audio Coding 3
Codec ID : 2000
Duration : 1h 9mn
Bit rate mode : Constant
Bit rate : 128 Kbps
Channel(s) : 2 channels
Channel positions : L R
Sampling rate : 48.0 KHz
Stream size : 63.4 MiB (9%)
Alignment : Split accross interleaves
Interleave, duration : 96 ms (2.40 video frames)
Interleave, preload duration : 96 ms




Скачать Непобедимый через торрент http://i59.fastpic.ru/big/2013/0919/f1/96143cb8a65538a5d21f43be9fdb25f1.jpg Скачать, смотреть онлайн Непобедимый бесплантно в хорошем качестве Описание: Советская Россия 20-х годов. Бывший красноармеец Андрей Хромов, одержимый идеей создания нового вида борьбы — самообороны без ... 9.8 10 13
Info! Золотая раздача, скачанное не засчитывается.
Торрент: Зарегистрирован [2013-09-19 08:07] · скачан: 124 раз
Статус: √ проверено
Размер: 700 MB
Как cкачать? Как скачать Непобедимый через торрент | UTorrent

% Раздел Тема Автор DL S | L
Кино СССР [ 744 MB ] Непобедимый | | DVDRip-AVC от AVP Studio AVP Studio Скачать
2 | 0
Кино СССР [ 743 MB ] Непобедимый | | DVDRip от AVP Studio AVP Studio Скачать
1 | 0



Последний раз редактировалось: vasilich619 (2013-09-19 10:58), всего редактировалось 1 раз

28-11-2019 20:33  

Отключить вcю реклaмy на сайте

19-09-2013 09:37 Непобедимый Скачать торрент  

19-09-2013 10:09 Непобедимый Скачать торрент  

отличный фильм, настоящий экшн



19-09-2013 12:06 Непобедимый Скачать торрент  

фильм супер!!!



    Дорогой пользователь! Огромная просьба, поблагодарите релизера, оцените раздачу и оставьте свои комментарий, если Вы скачали Непобедимый через торрент бесплатно!!
    Комментировать посты могут только пользователи прошедшие не сложную регистрацию
    Показать сообщения:    


    Непобедимый через торрент
    Скачать бесплатно Непобедимый
    Непобедимый скачать торрент
    Непобедимый смотреть онлайн
    Cкачать фильм Непобедимый бесплатно
    Непобедимый скачать торрент в хорошем качестве
    Непобедимый смотреть онлайн бесплатно в хорошем качестве
    Вы не можете начинать темы
    Вы не можете отвечать на сообщения
    Вы не можете редактировать свои сообщения
    Вы не можете удалять свои сообщения
    Вы не можете голосовать в опросах
    Вы не можете прикреплять файлы к сообщениям
    Вы можете скачивать файлы