1 сезон

3 сезон

iTunes

1

iTunes

MVO

iTunes

13

1 сезон

RePack

30

Deluxe

pack

Лицензия

ВАЖНО

ИГРА 18+

pack

RePack

MK11

RePack

jed

RePack

fifa19

RePack

RDR2

RePack

NEED FOR SPEED™ PAYBACK

4 сезон

9 сезон

Бесстыжие 9 сезон

Все сериалы

все сериалы на PB.wtf

RePack

FAR CRY 5

Anonymous, добрый день, мы катастрофически не успеваем собрать деньги на оплату серверов, помогите нам пожалуйста 5,10,15р., для нас важна любая помощь . В качестве благодарности мы отключим Вам всю рекламу на сайте (укажите свой ник в строку Ваше имя)!

×
  
Magnet ссылка

(Progressive Rock) Pink Floyd - Greatest Hits (2CD) - 2008, WavPack (Image+.cue), Lossless piratbit.org

через торрент piratbit.org

Размер: 972 MB | Добавлен: 7 лет 10 мес. назад | Торрент скачан:258 раз
Скачать  

20-09-2013 07:39 Скачать торрент  


Pink Floyd - Greatest Hits (2CD)
Страна: UK
Страна изготовитель диска: Россия
Жанр: Progressive Rock
Год выпуска: 2008
Формат: WavPack
Тип рипа: (Image+.cue)
Битрейт аудио: 320 kbps
Продолжительность: 02:39:11


продолжительность: 01:19:52

01. In the Flesh? (The Wall) (03:19)
02. One Of These Days ( Meddle) (05:21)
03. The Happiest Days of Our Lives (The Wall) (01:36)
04. Another Brick in the Wall, Pt. 2 (The Wall) (03:46)
05. The Fletcher Memorial Home (Final Cut) (04:08)
06. Comfortably Numb (The Wall) (06:18)
07. Us and Them (The Dark Side of the Moon) (07:22)
08. Final Cut (Final CutThe) (04:48)
09. Money (The Dark Side of the Moon) (06:14)
10. Time (The Dark Side of the Moon) (06:46)
11. Run Like Hell (The Wall) (04:18)
12. Sheep (Echoes) (09:22)
13. Echoes (Echoes) (16:30)

Код:

Exact Audio Copy V0.99 prebeta 5 from 4. May 2009

Отчёт EAC об извлечении, выполненном 5. апреля 2010, 20:21

Pink Floyd / Star Mark Greatest Hits CD1

Дисковод: HL-DT-STDVDRAM GE20NU10   Adapter: 3  ID: 0

Режим чтения                 : Достоверность
Использование точного потока : Да
Отключение кэша аудио        : Да
Использование указателей C2  : Нет

Коррекция смещения при чтении                     : 667
Способность читать области Lead-in и Lead-out     : Нет
Заполнение пропущенных сэмплов тишиной            : Да
Удаление блоков с тишиной в начале и конце        : Нет
При вычислениях CRC использовались нулевые сэмплы : Да
Интерфейс                                         : Встроенный Win32-интерфейс для Win NT/2000

Выходной формат          : Пользовательский кодировщик
Выбранный битрейт        : 1024 kBit/s
Качество                 : Высокий
Добавление ID3-тэга      : Нет
Утилита сжатия           : C:Program Fileswavpack.exe
Дополнительные параметры : -hm -w "Year=%y" -w "Genre=%m" %s %d

TOC извлечённого CD

     Трек |   Старт  | Длительность | Начальный сектор | Конечный сектор
    ---------------------------------------------------------------------
       1  |  0:00.00 |    3:19.08   |           0      |      14932
       2  |  3:19.08 |    5:21.04   |       14933      |      39011
       3  |  8:40.12 |    1:36.68   |       39012      |      46279
       4  | 10:17.05 |    3:46.11   |       46280      |      63240
       5  | 14:03.16 |    4:08.41   |       63241      |      81881
       6  | 18:11.57 |    6:18.41   |       81882      |     110272
       7  | 24:30.23 |    7:22.24   |      110273      |     143446
       8  | 31:52.47 |    4:48.25   |      143447      |     165071
       9  | 36:40.72 |    6:14.12   |      165072      |     193133
      10  | 42:55.09 |    6:46.09   |      193134      |     223592
      11  | 49:41.18 |    4:18.00   |      223593      |     242942
      12  | 53:59.18 |    9:22.34   |      242943      |     285126
      13  | 63:21.52 |   16:30.60   |      285127      |     359436

Характеристики диапазона извлечения и сообщения об ошибках

Выбранный диапазон

     Имя файла C:Documents and Settings...Рабочий столPink Floyd - Star Mark Greatest Hits CD1.wav

     Пиковый уровень 100.0 %
     Качество диапазона 100.0 %
     CRC теста 91E0D866
     CRC копии 91E0D866
     Копирование... OK

Ошибок не произошло

AccurateRip: сводка

Трек  1  точное извлечение (доверие 3)  [EF9C4680]
Трек  2  точное извлечение (доверие 3)  [57AABB3E]
Трек  3  точное извлечение (доверие 3)  [37A1F180]
Трек  4  точное извлечение (доверие 3)  [3B519E91]
Трек  5  точное извлечение (доверие 3)  [0BB571E0]
Трек  6  точное извлечение (доверие 2)  [050E8011]
Трек  7  точное извлечение (доверие 2)  [5C32D13A]
Трек  8  точное извлечение (доверие 2)  [357179C0]
Трек  9  точное извлечение (доверие 2)  [E5EF18C6]
Трек 10  точное извлечение (доверие 2)  [29FFEFE2]
Трек 11  точное извлечение (доверие 2)  [8130FF5C]
Трек 12  точное извлечение (доверие 2)  [902A0422]
Трек 13  точность не определена (достоверность 2)  [8511257D], AccurateRip вернул [949FEDDA]

12 трек(и) скопированы точно
1 трек(и) не удалось проверить на точность

Некоторые треки не прошли проверку на точность

Конец отчёта

Код:

REM GENRE Rock
REM DATE 2007
REM DISCID A212B80D
REM COMMENT "ExactAudioCopy v0.99pb5"
PERFORMER "Pink Floyd"
TITLE "Star Mark Greatest Hits CD1"
FILE "Pink Floyd - Star Mark Greatest Hits CD1.wv" WAVE
  TRACK 01 AUDIO
    TITLE "In the Flesh? - The Wall"
    PERFORMER "Pink Floyd"
    FLAGS DCP
    INDEX 01 00:00:00
  TRACK 02 AUDIO
    TITLE "One Of These Days - Meddle"
    PERFORMER "Pink Floyd"
    FLAGS DCP
    INDEX 01 03:19:08
  TRACK 03 AUDIO
    TITLE "The Happiest Days of Our Lives - The Wall"
    PERFORMER "Pink Floyd"
    FLAGS DCP
    INDEX 01 08:40:12
  TRACK 04 AUDIO
    TITLE "Another Brick in the Wall, Pt. 2 - The Wall"
    PERFORMER "Pink Floyd"
    FLAGS DCP
    INDEX 01 10:17:05
  TRACK 05 AUDIO
    TITLE "The Fletcher Memorial Home - Final Cut"
    PERFORMER "Pink Floyd"
    FLAGS DCP
    INDEX 01 14:03:16
  TRACK 06 AUDIO
    TITLE "Comfortably Numb - The Wall"
    PERFORMER "Pink Floyd"
    FLAGS DCP
    INDEX 01 18:11:57
  TRACK 07 AUDIO
    TITLE "Us and Them  - The Dark Side of the Moon"
    PERFORMER "Pink Floyd"
    FLAGS DCP
    INDEX 01 24:30:23
  TRACK 08 AUDIO
    TITLE "Final Cut - Final CutThe"
    PERFORMER "Pink Floyd"
    FLAGS DCP
    INDEX 01 31:52:47
  TRACK 09 AUDIO
    TITLE "Money  - The Dark Side of the Moon"
    PERFORMER "Pink Floyd"
    FLAGS DCP
    INDEX 01 36:40:72
  TRACK 10 AUDIO
    TITLE "Time  - The Dark Side of the Moon"
    PERFORMER "Pink Floyd"
    FLAGS DCP
    INDEX 01 42:55:09
  TRACK 11 AUDIO
    TITLE "Run Like Hell - The Wall"
    PERFORMER "Pink Floyd"
    FLAGS DCP
    INDEX 01 49:41:18
  TRACK 12 AUDIO
    TITLE "Sheep - Echoes"
    PERFORMER "Pink Floyd"
    FLAGS DCP
    INDEX 01 53:59:18
  TRACK 13 AUDIO
    TITLE "Echoes - Echoes"
    PERFORMER "Pink Floyd"
    FLAGS DCP
    INDEX 01 63:21:52

продолжительность: 01:19:19

01. Shine on You Crazy Diamond, Pts. 1-5 - Wish You Were Here (13:31)
02. The Hero's Return (Final Cut) (02:59)
03. Hey You (The Wall) (04:43)
04. Wish You Were Here (Wish You Were Here) (05:26)
05. Mother (The Wall) (05:32)
06. The Gunners Dream (Final Cut) (05:05)
07. The Great Gig in the Sky (The Dark Side of the Moon) (04:39)
08. Young Lust (The Wall) (03:13)
09. Have a Cigar (Wish You Were Here) (05:10)
10. What Do You Want from Me (The Division Bell) (04:20)
11. On The Turning Away (A Momentary Lapse Of Reason) (05:32)
12. Take It Back (The Division Bell) (06:10)
13. Learning To Fly (A Momentary Lapse Of Reason) (04:55)
14. High Hopes (The Division Bell) (07:58)

Код:

Exact Audio Copy V0.99 prebeta 5 from 4. May 2009

Отчёт EAC об извлечении, выполненном 6. апреля 2010, 13:59

Pink Floyd / Star Mark Greatest Hits CD2

Дисковод: TOSHIBA DVD-ROM SD-R1202   Adapter: 1  ID: 0

Режим чтения                 : Достоверность
Использование точного потока : Да
Отключение кэша аудио        : Да
Использование указателей C2  : Нет

Коррекция смещения при чтении                     : -472
Способность читать области Lead-in и Lead-out     : Нет
Заполнение пропущенных сэмплов тишиной            : Да
Удаление блоков с тишиной в начале и конце        : Нет
При вычислениях CRC использовались нулевые сэмплы : Да
Интерфейс                                         : Встроенный Win32-интерфейс для Win NT/2000

Выходной формат          : Пользовательский кодировщик
Выбранный битрейт        : 1024 kBit/s
Качество                 : Высокий
Добавление ID3-тэга      : Да
Утилита сжатия           : C:Documents and SettingsAdminРабочий столwavpack-4.60.1wavpack.exe

TOC извлечённого CD

     Трек |   Старт  | Длительность | Начальный сектор | Конечный сектор
    ---------------------------------------------------------------------
       1  |  0:00.00 |   13:31.74   |           0      |      60898
       2  | 13:31.74 |    2:59.22   |       60899      |      74345
       3  | 16:31.21 |    4:43.40   |       74346      |      95610
       4  | 21:14.61 |    5:26.00   |       95611      |     120060
       5  | 26:40.61 |    5:32.00   |      120061      |     144960
       6  | 32:12.61 |    5:05.55   |      144961      |     167890
       7  | 37:18.41 |    4:39.00   |      167891      |     188815
       8  | 41:57.41 |    3:13.37   |      188816      |     203327
       9  | 45:11.03 |    5:10.55   |      203328      |     226632
      10  | 50:21.58 |    4:20.74   |      226633      |     246206
      11  | 54:42.57 |    5:32.01   |      246207      |     271107
      12  | 60:14.58 |    6:10.72   |      271108      |     298929
      13  | 66:25.55 |    4:55.18   |      298930      |     321072
      14  | 71:20.73 |    7:58.44   |      321073      |     356966

Характеристики диапазона извлечения и сообщения об ошибках

Выбранный диапазон

     Имя файла C:Documents and SettingsAdminМои документыPink Floyd - Star Mark Greatest Hits CD2.wav

     Пиковый уровень 100.0 %
     Качество диапазона 99.9 %
     CRC теста 52A4DA88
     CRC копии 52A4DA88
     Копирование... OK

Ошибок не произошло

AccurateRip: сводка

Трек  1  точное извлечение (доверие 3)  [2B29EDFE]
Трек  2  точное извлечение (доверие 3)  [DDB7809D]
Трек  3  точное извлечение (доверие 3)  [1FF89E25]
Трек  4  точное извлечение (доверие 3)  [81356533]
Трек  5  точное извлечение (доверие 3)  [8287CB07]
Трек  6  точное извлечение (доверие 3)  [5A4333EC]
Трек  7  точное извлечение (доверие 3)  [321E8920]
Трек  8  точное извлечение (доверие 3)  [5A372BEA]
Трек  9  точное извлечение (доверие 3)  [304EB4DC]
Трек 10  точное извлечение (доверие 3)  [26C4033B]
Трек 11  точное извлечение (доверие 2)  [6D677453]
Трек 12  точное извлечение (доверие 2)  [D34952E0]
Трек 13  точное извлечение (доверие 2)  [EDEF1655]
Трек 14  точность не определена (достоверность 2)  [471BB72D], AccurateRip вернул [5D810A59]

13 трек(и) скопированы точно
1 трек(и) не удалось проверить на точность

Некоторые треки не прошли проверку на точность

Конец отчёта

Код:

REM GENRE Rock
REM DATE 2007
REM DISCID C712970E
REM COMMENT "ExactAudioCopy v0.99pb5"
PERFORMER "Pink Floyd"
TITLE "Star Mark Greatest Hits CD2"
FILE "Pink Floyd - Star Mark Greatest Hits CD2.wv" WAVE
  TRACK 01 AUDIO
    TITLE "Shine on You Crazy Diamond, Pts. 1-5 - Wish You Were Here"
    PERFORMER "Pink Floyd"
    FLAGS DCP
    INDEX 01 00:00:00
  TRACK 02 AUDIO
    TITLE "The Hero's Return - Final Cut"
    PERFORMER "Pink Floyd"
    FLAGS DCP
    INDEX 00 13:29:74
    INDEX 01 13:31:74
  TRACK 03 AUDIO
    TITLE "Hey You - The Wall"
    PERFORMER "Pink Floyd"
    FLAGS DCP
    INDEX 00 16:29:21
    INDEX 01 16:31:21
  TRACK 04 AUDIO
    TITLE "Wish You Were Here - Wish You Were Here"
    PERFORMER "Pink Floyd"
    FLAGS DCP
    INDEX 00 21:12:61
    INDEX 01 21:14:61
  TRACK 05 AUDIO
    TITLE "Mother - The Wall"
    PERFORMER "Pink Floyd"
    FLAGS DCP
    INDEX 00 26:38:61
    INDEX 01 26:40:61
  TRACK 06 AUDIO
    TITLE "The Gunners Dream - Final Cut"
    PERFORMER "Pink Floyd"
    FLAGS DCP
    INDEX 00 32:10:61
    INDEX 01 32:12:61
  TRACK 07 AUDIO
    TITLE "The Great Gig in the Sky  - The Dark Side of the Moon"
    PERFORMER "Pink Floyd"
    FLAGS DCP
    INDEX 00 37:16:41
    INDEX 01 37:18:41
  TRACK 08 AUDIO
    TITLE "Young Lust - The Wall"
    PERFORMER "Pink Floyd"
    FLAGS DCP
    INDEX 00 41:55:41
    INDEX 01 41:57:41
  TRACK 09 AUDIO
    TITLE "Have a Cigar - Wish You Were Here"
    PERFORMER "Pink Floyd"
    FLAGS DCP
    INDEX 00 45:09:03
    INDEX 01 45:11:03
  TRACK 10 AUDIO
    TITLE "What Do You Want from Me - The Division Bell"
    PERFORMER "Pink Floyd"
    FLAGS DCP
    INDEX 00 50:19:58
    INDEX 01 50:21:58
  TRACK 11 AUDIO
    TITLE "On The Turning Away - A Momentary Lapse Of Reason"
    PERFORMER "Pink Floyd"
    FLAGS DCP
    INDEX 00 54:40:57
    INDEX 01 54:42:57
  TRACK 12 AUDIO
    TITLE "Take It Back - The Division Bell"
    PERFORMER "Pink Floyd"
    FLAGS DCP
    INDEX 00 60:12:58
    INDEX 01 60:14:58
  TRACK 13 AUDIO
    TITLE "Learning To Fly - A Momentary Lapse Of Reason"
    PERFORMER "Pink Floyd"
    FLAGS DCP
    INDEX 00 66:23:55
    INDEX 01 66:25:55
  TRACK 14 AUDIO
    TITLE "High Hopes - The Division Bell"
    PERFORMER "Pink Floyd"
    FLAGS DCP
    INDEX 00 71:18:73
    INDEX 01 71:20:73



piratbit.org



Скачать через торрент http://www.tamecom1.com/urpic/images/4j7cfcjhyp242c0p79m.png Скачать фильм через торрент бесплантно в хорошем качестве Год выпуска: 2008Формат: WavPackТип рипа: (Image+.cue)Битрейт аудио: 320 kbpsПродолжительность: 02:39:11 продолжительность: 01:19:52 ... 10 10 4
Info! Золотая раздача, скачанное не засчитывается.
Торрент: Зарегистрирован [2013-09-20 07:39] · скачан: 258 раз
Статус: √ проверено
Размер: 972 MB
Как cкачать? Как скачать через торрент | UTorrent

% Раздел Тема Автор DL S | L
Classic Rock & Hard Rock (lossless) [ 2.68 GB ] EVANESCENCE Дискография - 1998-2007 FLAC lossless ser_1985 Скачать
1 | 0
Eurodance, Technopop, Disco (lossless) [ 1.86 GB ] Dr. Alban Студийные альбомы - 5CD [FLAC lossless] tauras Скачать
1 | 0
Action FPS (1st Person) [ 8.89 GB ] Star Wars: The Force Unleashed - Ultimate Sith Edition [Lossless Repack RU/EN] от Druid =Чувак= Скачать
1 | 0
Архив (Alternative, Punk, Independent) [ 1.74 GB ] Breaking Benjamin - Дискография - 2001-2009 FLAC lossless King_IS_Back Скачать
1 | 0
Гоночные симуляторы [ 3.18 GB ] Дальнобойщик​и 3: Золотое Издание [Lossless Repack RU] от R.G. Catalyst roman3310i Скачать
1 | 0
Архив (Многоканальная музыка и собственные оцифровки) [ 405 MB ] Black Sabbath -Heaven & hell - 1980 DTS lossless staryirocker Скачать
1 | 1
RTS (стратегии в реальном времени) [ 4.21 GB ] Command & Conquer 4: Tiberian Twilight [Lossless RePackRUEA] Alex_Zeyn Скачать
1 | 1

28-11-2019 20:33  

Отключить всю рекламу на сайте

23-11-2014 09:39 Скачать торрент  

Никогда не понимал да и не только я как из Флойда можно делать сборник :)))) у ник каждый альбом это одно целое произведение, ну что ж тут говорить это производство Россия и этим все сказано :)))))piratbit.org



    Дорогой пользователь! Огромная просьба, поблагодарите релизера, оцените раздачу и оставьте свои комментарий, если Вы скачали через торрент бесплатно! Внесите свою лепту в развитие PiratBit!
    Комментировать посты могут только пользователи прошедшие не сложную регистрацию
    Показать сообщения:    

    через торрент
    Скачать бесплатно
    скачать торрент
    смотреть онлайн
    Cкачать фильм бесплатно
    скачать торрент в хорошем качестве
    смотреть онлайн бесплатно в хорошем качестве


    Вы не можете начинать темы
    Вы не можете отвечать на сообщения
    Вы не можете редактировать свои сообщения
    Вы не можете удалять свои сообщения
    Вы не можете голосовать в опросах
    Вы не можете прикреплять файлы к сообщениям
    Вы можете скачивать файлы