Marvel's Avengers Deluxe Edition (супер цена) 159р. Внимание количество ограничено!!!

2 сезон

iTunes

iTunes

1

iTunes

iTunes

iTunes

WEBRip

iTunes

30
pack

Новость дня

ВАЖНО

!!Акция!!

Alien_RageХит недели

RePack

Horizon Zero Dawn

ИГРА 18+

pack

RePack

jed

!!Акция!!

Alien_Rage

RePack

fifa19

RePack

Assassins Creed: Odyssey

RePack

NEED FOR SPEED™ PAYBACK

4 сезон

9 сезон

Бесстыжие 9 сезон

Все сериалы

все сериалы на PB.wtf

RePack

FAR CRY 5
  

Всегда говори «ДА» / Yes Man (Пейтон Рид / Peyton Reed) [2008, Комедия, BDRip] [MVO] + Subs (Rus) piratbit.org

Всегда говори «ДА» через торрент piratbit.org

Раздают: 2 [ 0 KB/s ]
Размер: 1.46 GB | Добавлен: 6 лет 11 мес. назад | Торрент скачан:694 раза
Скачать  

23-09-2013 20:42 Всегда говори «ДА» Скачать торрент  

Всегда говори «ДА» / Yes Man
«Одно слово может изменить твою жизнь»


Год выпуска: 2008
Страна: США, Австралия
Жанр: комедия
Продолжительность: 01:44:23
Перевод: Профессиональный (многоголосный)
Cубтитры: Русские (только на корейскую речь и песню)
Режиссер: Пейтон Рид / Peyton Reed
В ролях: Джим Керри (Carl), Зои Дешанель (Allison), Брэдли Купер (Peter), Джон Майкл Хиггинс (Nick), Риз Дэрби (Norman), Дэнни Мастерсон (Rooney), Фионнула Флэнаган (Tillie), Теренс Стэмп (Terrence), Саша Александр (Lucy), Молли Симс (Stephanie), Брент Бриско (Homeless Guy), Роки Кэрролл (Wes), Джон Котрэн мл. (Tweed), Спенсер Гаррет (Multack)
Описание: Депрессивный главный герой всегда и всем говорил «нет» — например, друзьям, если они зовут куда-то. Но в один прекрасный день он заключает соглашение, по которому всегда должен отвечать «Да» на любое предложение…


Качество: BDRip
Формат: AVI
Видео кодек: XviD
Аудио кодек: AC3
Видео: 720x304 (2.37:1), 23.976 fps, XviD build 73 ~1605 kbps avg, 0.31 bit/pixel
Аудио: 48 kHz, AC3 Dolby Digital, 3/2 (L,C,R,l,r) + LFE ch, ~384.00 kbps avg (RUS)

Цитата:

автор собранной дорожки Infestead говорит:

Так как я сам терпеть не могу дубляж, потому что считаю, что для получения полного удовольствия от фильма просто необходимо слышать оригинальные голоса актеров, не только видеть но и слышать их игру, и уж тем более Джима Керри, искал этот фильм с закадровым.
Но безуспешно.
Поэтому сделал его сам из оригинальной дорожки и дубляжа.
(Кому интересны подробности: Разобрал дорожки, смикшировал центральные каналы, собрал)

Получилось вполне нормально. Есть еле заметное эхо и пара щелчков за весь фильм.Сам смотрел фильм с удовольствием.
Делал в первую очередь для себя, но решил выложить для таких же любителей закадрового перевода.
General
Complete name : E:INTERNETVsegda govori DA.2008Yes_Man.2008.BDRip.[MVO] + Rus SUB.km.avi
Format : AVI
Format/Info : Audio Video Interleave
File size : 1.46 GiB
Duration : 1h 44mn
Overall bit rate : 1 999 Kbps
Writing application : VirtualDubMod 1.5.10.3 (build 2550/release)
Writing library : VirtualDubMod build 2550/release

Video
ID : 0
Format : MPEG-4 Visual
Format profile : Advanced Simple@L5
Format settings, BVOP : Yes
Format settings, QPel : No
Format settings, GMC : No warppoints
Format settings, Matrix : Custom
Codec ID : XVID
Codec ID/Hint : XviD
Duration : 1h 44mn
Bit rate : 1 606 Kbps
Width : 720 pixels
Height : 304 pixels
Display aspect ratio : 2.35:1
Frame rate : 23.976 fps
Color space : YUV
Chroma subsampling : 4:2:0
Bit depth : 8 bits
Scan type : Progressive
Bits/(Pixel*Frame) : 0.306
Stream size : 1.17 GiB (80%)
Writing library : XviD 73

Audio
ID : 1
Format : AC-3
Format/Info : Audio Coding 3
Mode extension : CM (complete main)
Codec ID : 2000
Duration : 1h 44mn
Bit rate mode : Constant
Bit rate : 384 Kbps
Channel(s) : 6 channels
Channel positions : Front: L C R, Side: L R, LFE
Sampling rate : 48.0 KHz
Bit depth : 16 bits
Stream size : 287 MiB (19%)
Alignment : Split accross interleaves
Interleave, duration : 42 ms (1.00 video frame)
Interleave, preload duration : 500 ms
piratbit.org



Скачать Всегда говори «ДА» через торрент http://i079.radikal.ru/1309/0a/f892dd9c38b9.jpg Скачать фильм Всегда говори «ДА» через торрент бесплантно в хорошем качестве Описание: Депрессивный главный герой всегда и всем говорил «нет» — например, друзьям, если они зовут куда-то. Но в один прекрасный день он ... 9.9 10 19
Info! Золотая раздача, скачанное не засчитывается.
Торрент: Зарегистрирован [2013-09-23 20:42] · скачан: 694 раз
Статус: √ проверено
Размер: 1.46 GB
Как cкачать? Как скачать Всегда говори «ДА» через торрент | qTorrent

% Раздел Тема Автор DL S | L
Фильмы [HD 720p, 1080p] (Хороший звук DUB, MVO) [ 5.94 GB ] Всегда говори «ДА» / Yes Man [2008 BDRip ] F.U. Скачать
1 | 0
Фильмы 2006-2008 [ 680 MB ] Всегда говори «ДА» / Yes Man [ 2008. . BDRip Полное Дублирование ] akcent Скачать
1 | 0
Фильмы 2006-2008 [ 1.36 GB ] Всегда говори «ДА» / Yes Man [2008 DVDRip] Anonymous Скачать
1 | 0
Фильмы 2006-2008 [ 2.18 GB ] Всегда говори `ДА` / Yes Man [2008 BDRip] Lil Badun Скачать
1 | 0
Фильмы [HD 720p, 1080p] (Хороший звук DUB, MVO) [ 3.06 GB ] Всегда говори «ДА» / Yes Man [2008 Kомедия BDRip] [720p] Курортник Скачать
2 | 0

28-11-2019 20:33  

Отключить всю рекламу на сайте

23-09-2013 21:23 Всегда говори «ДА» Скачать торрент  

Одна из моих любимых комедий с участием Джима Керри.piratbit.org



23-09-2013 21:31 Всегда говори «ДА» Скачать торрент  

Отличная комедия! Кто не смотрел- обязательно посмотрите :good:piratbit.org



    Дорогой пользователь! Огромная просьба, поблагодарите релизера, оцените раздачу и оставьте свои комментарий, если Вы скачали Всегда говори «ДА» через торрент бесплатно! Внесите свою лепту в развитие PiratBit!
    Комментировать посты могут только пользователи прошедшие не сложную регистрацию
    Показать сообщения:    

    Всегда говори «ДА» через торрент
    Скачать бесплатно Всегда говори «ДА»
    Всегда говори «ДА» скачать торрент
    Всегда говори «ДА» смотреть онлайн
    Cкачать фильм Всегда говори «ДА» бесплатно
    Всегда говори «ДА» скачать торрент в хорошем качестве
    Всегда говори «ДА» смотреть онлайн бесплатно в хорошем качестве


    Вы не можете начинать темы
    Вы не можете отвечать на сообщения
    Вы не можете редактировать свои сообщения
    Вы не можете удалять свои сообщения
    Вы не можете голосовать в опросах
    Вы не можете прикреплять файлы к сообщениям
    Вы можете скачивать файлы