Доктор Стрэндж

Лицензия

Добыча

Дубляж

Дом дракона

1 сезон

Тор

Дубляж

В эфире

Дубляж

Там, где раки поют

MVO

Властелин колец

1 сезон

Ultimate

pack

Рекомендуем

30

Пиратка

ВАЖНО

ВАЖНО

Ghostwire

Пиратка

jed

RePack

nioh2

RePack

RDR2

RePack

NEED FOR SPEED™ PAYBACK

RePack

скачать торрент

Кинопоиск HD

Острые козырьки 6 сезон

6 сезон

FAR CRY 6

RePack

скачать торрент

Лицензия

скачать торрент

MVO

1

1 сезон

скачать торрент

1 сезон

скачать торрент

Лицензия

  

Призрачные пули / The Bullet Vanishes (Лоу Чи Люн / Law Chi-Leung) [2012, Китай, Гонконг, исторический детектив, BDRip 720p] DVO(BTT-TEAM), Оriginal, Sub

Призрачные пули через торрент piratbit.org

Размер: 5.01 GB | Добавлен: 9 лет 2 мес. назад | Торрент скачан:51 раз
Смотреть онлайн | Скачать   

24-09-2013 06:04 Призрачные пули Скачать торрент  

Призрачные пули / The Bullet Vanishes
Год выпуска: 2012
Страна: Китай , Гонконг
Жанр: исторический детектив,
Продолжительность: 01:47:45
Перевод: Любительский двухголосый (закадровый)(BTT-TEAM)
Субтитры: Русские

Режиссер: Лоу Чи Люн / Law Chi-Leung




В ролях: Lau Ching-Wan / Лау Чин-Ван роли Сун Дунлу
Nicholas Tse/ Николас Цзе в роли Го Чжуя
Yang Mi / Ян Ми в роли Сяояньцюэ
Jing Bo-Ran / Цзин Божань в роли Сяоу,

Описание: Классический остросюжетный детектив, где сталкиваются интересы власти, полиции и жителей маленького городка в 30-е г.г. XX века в Китае.
«Пуля-призрак» только предлог для выяснения отношений между продажным правосудием и честными следователями, которые пытаются в этом «змеином клубке» отыскать правду
.

Релиз группы
Озвучивание Ворон и Nami
Перевод julz_nsk

Качество: BDRip 720p
Формат: MKV
Видео кодек: AVC
Аудио кодек: DTS AC3
Видео: 1280x544 (2.35:1), 24.000 fps, 4 500 Kbps
Аудио#1: Русский, DTS, 1 510 Kbps, 48.0 KHz, 6 ch(BTT-TEAM)
Аудио#2: Chinese AC3, 640 Kbps, 48.0 KHz, 6 ch




General
Complete name : The.Bullet.Vanishes.2012.720p.BDRip.RU.CN.BTT-TEAM.mkv
Format : Matroska
File size : 5.01 GiB
Duration : 1h 47mn
Overall bit rate : 6 650 Kbps
Encoded date : UTC 2013-02-17 17:35:51
Writing application : mkvmerge v6.0.0 ('Coming Up For Air') built on Jan 20 2013 09:52:00
Writing library : libebml v1.3.0 + libmatroska v1.4.0

Video
ID : 1
Format : AVC
Format/Info : Advanced Video Codec
Format profile : High@L4.1
Format settings, CABAC : Yes
Format settings, ReFrames : 12 frames
Muxing mode : Container profile=Unknown@4.1
Codec ID : V_MPEG4/ISO/AVC
Duration : 1h 47mn
Bit rate : 4 500 Kbps
Width : 1 280 pixels
Height : 544 pixels
Display aspect ratio : 2.35:1
Frame rate : 24.000 fps
Color space : YUV
Chroma subsampling : 4:2:0
Bit depth : 8 bits
Scan type : Progressive
Bits/(Pixel*Frame) : 0.269
Stream size : 3.29 GiB (66%)
Writing library : x264 core 128 r2216+688+33 06dac27 tMod+MixAQ [8-bit@4:2:0 X86_64]
Encoding settings : cabac=1 / ref=12 / deblock=1:-3:-3 / analyse=0x3:0x113 / me=umh / subme=10 / psy=1 / fade_compensate=0.00 / psy_rd=1.10:0.00 / mixed_ref=1 / me_range=32 / chroma_me=1 / trellis=2 / 8x8dct=1 / cqm=0 / deadzone=21,11 / fast_pskip=0 / chroma_qp_offset=-2 / threads=18 / lookahead_threads=3 / sliced_threads=0 / nr=0 / decimate=0 / interlaced=0 / bluray_compat=0 / constrained_intra=0 / fgo=0 / bframes=8 / b_pyramid=2 / b_adapt=2 / b_bias=0 / direct=3 / weightb=1 / open_gop=0 / weightp=2 / keyint=240 / keyint_min=24 / scenecut=40 / intra_refresh=0 / rc_lookahead=240 / rc=2pass / mbtree=1 / bitrate=4500 / ratetol=1.0 / qcomp=0.70 / qpmin=0 / qpmax=69 / qpstep=4 / cplxblur=20.0 / qblur=0.5 / ip_ratio=1.10 / aq=4 / aq-strength=0.85 / aq-sensitivity=10.00 / aq-ifactor=1.00 / aq-pfactor=1.00 / aq-bfactor=1.00 / aq2=0
Language : Chinese

Audio #1
ID : 2
Format : DTS
Format/Info : Digital Theater Systems
Codec ID : A_DTS
Duration : 1h 47mn
Bit rate mode : Constant
Bit rate : 1 510 Kbps
Channel(s) : 6 channels
Channel positions : Front: L C R, Side: L R, LFE
Sampling rate : 48.0 KHz
Bit depth : 24 bits
Stream size : 1.14 GiB (23%)
Title : DVO Ворон и Nami
Language : Russian

Audio #2
ID : 3
Format : AC-3
Format/Info : Audio Coding 3
Mode extension : CM (complete main)
Codec ID : A_AC3
Duration : 1h 47mn
Bit rate mode : Constant
Bit rate : 640 Kbps
Channel(s) : 6 channels
Channel positions : Front: L C R, Side: L R, LFE
Sampling rate : 48.0 KHz
Bit depth : 16 bits
Stream size : 493 MiB (10%)
Title : mandarin
Language : Chinese

Text
ID : 4
Format : UTF-8
Codec ID : S_TEXT/UTF8
Codec ID/Info : UTF-8 Plain Text
Title : Перевод – julz_nsk
Language : Russian

Menu #1
00:00:00.000 : en:00:00:00.000
00:09:33.042 : en:00:09:33.042
00:19:02.167 : en:00:19:02.167
00:27:22.917 : en:00:27:22.917
00:37:22.292 : en:00:37:22.292
00:45:19.667 : en:00:45:19.667
00:52:35.042 : en:00:52:35.042
01:03:53.875 : en:01:03:53.875
01:11:45.833 : en:01:11:45.833
01:19:36.417 : en:01:19:36.417
01:32:04.250 : en:01:32:04.250
01:42:31.292 : en:01:42:31.292

Menu #2
00:00:00.000 : en:00:00:00.000
00:09:33.042 : en:00:09:33.042
00:19:02.167 : en:00:19:02.167
00:27:22.917 : en:00:27:22.917
00:37:22.292 : en:00:37:22.292
00:45:19.667 : en:00:45:19.667
00:52:35.042 : en:00:52:35.042
01:03:53.875 : en:01:03:53.875
01:11:45.833 : en:01:11:45.833
01:19:36.417 : en:01:19:36.417
01:32:04.250 : en:01:32:04.250
01:42:31.292 : en:01:42:31.292


Призрачные пули скачать торрент





Скачать Призрачные пули через торрент https://pic1.kartinco.top/images/41/iygpr.jpg Скачать, смотреть онлайн Призрачные пули бесплантно в хорошем качестве Описание: Классический остросюжетный детектив, где сталкиваются интересы власти, полиции и жителей маленького городка в 30-е г.г. XX века в ... 10 10 5
Info! Золотая раздача, скачанное не засчитывается.
Торрент: Зарегистрирован [2013-09-24 06:04] · скачан: 51 раз
Статус: √ проверено
Размер: 5.01 GB
Как cкачать? Как скачать Призрачные пули через торрент | UTorrent

28-11-2019 20:33  


Отключить вcю реклaмy на сайте, в т.ч. и в плеере онлайн просмотра!

    Дорогой пользователь! Огромная просьба, поблагодарите релизера, оцените раздачу и оставьте свои комментарий, если Вы скачали Призрачные пули через торрент бесплатно!!
    Комментировать посты могут только пользователи прошедшие не сложную регистрацию
    Показать сообщения:    


    Призрачные пули через торрент
    Скачать бесплатно Призрачные пули
    Призрачные пули скачать торрент
    Призрачные пули смотреть онлайн
    Cкачать фильм Призрачные пули бесплатно
    Призрачные пули скачать торрент в хорошем качестве
    Призрачные пули смотреть онлайн бесплатно в хорошем качестве
    Вы не можете начинать темы
    Вы не можете отвечать на сообщения
    Вы не можете редактировать свои сообщения
    Вы не можете удалять свои сообщения
    Вы не можете голосовать в опросах
    Вы не можете прикреплять файлы к сообщениям
    Вы можете скачивать файлы
    Призрачные пули / The Bullet Vanishes [2012, Китай, Гонконг, исторический детектив, BDRip 720p] DVO, Оriginal, Sub смотреть онлайн, скачать торрент picoco.icu