1 сезон

iTunes

iTunes

1

Line

MVO

iTunes

13

1 сезон

RePack

30

Deluxe

pack

Лицензия

ВАЖНО

ИГРА 18+

pack

RePack

MK11

RePack

jed

RePack

fifa19

RePack

RDR2

RePack

NEED FOR SPEED™ PAYBACK

4 сезон

9 сезон

Бесстыжие 9 сезон

Все сериалы

все сериалы на PB.wtf

RePack

FAR CRY 5

Anonymous, добрый день, мы катастрофически не успеваем собрать деньги на оплату серверов, помогите нам пожалуйста 5,10,15р., для нас важна любая помощь . В качестве благодарности мы отключим Вам всю рекламу на сайте (укажите свой ник в строку Ваше имя)!

×
  
Magnet ссылка

Комната страха / Panic Room (Дэвид Финчер) [2002 г., триллер, криминал, DVDRip, Дубляж] piratbit.org

Комната страха через торрент piratbit.org

Размер: 1.36 GB | Добавлен: 7 лет 10 мес. назад | Торрент скачан:69 раз
Скачать  

28-09-2013 02:01 Комната страха Скачать торрент  

Комната страха / Panic Room
Год выпуска: 2002
Страна: США
Жанр: триллер, криминал,
Продолжительность: 1 ч. 47 м. 22 с.
Перевод: Дубляж
Субтитры: Нет

Режиссер: Дэвид Финчер

Джоди Фостер, Кристен Стюарт, Форест Уитакер, Дуайт Йоакам, Джаред Лето, Патрик Бошо, Энн Магнусон, Йен Бьюкэнэн, Эндрю Кевин Уокер, Пол Шульц, Мэл Родригез, Ричард Конант, Пол Саймон, Кен Лернер, Николь Кидман,

Описание: Мэг Олтман с дочерью Сарой въехала в свой только что купленный дом, ранее принадлежащий миллионеру. Хороший дом, в хорошем районе, казалось бы идеальное место для жизни.

Помимо всего прочего дом оборудован так называемой «аварийной комнатой» в которой можно спрятаться, если в дом залезут воры. После того как дверь из стали закроется, попасть в комнату становится невозможно. Конечно, злодеи не заставили себя ждать...

Качество: DVDRip
Формат: AVI
Видео кодек: XviD
Аудио кодек: AC3
Видео: 1365 Кбит/сек, 720*288 (2,500), в 25,000 кадров/сек, MPEG-4 Visual (XviD)
Аудио: 448 Кбит/сек, 48,0 КГц, 16 бит, 6 каналов, AC-3



Общее
Кол-во : 284
Кол-во потоков такого типа : 1
Тип потока : General
Тип потока : Общее
Идентификатор типа потока : 0
Inform : AVI: 1,36 Гбайт, 1 ч. 47 м.
Кол-во видеопотоков : 1
Кол-во аудиопотоков : 1
Video_Format_List : MPEG-4 Visual
Video_Format_WithHint_List : MPEG-4 Visual (XviD)
Видеокодеки : XviD
Audio_Format_List : AC-3
Audio_Format_WithHint_List : AC-3
Аудиокодеки : AC3
Полное имя : H:ТОРРЕНТЫКомната страха.avi
Имя папки : H:ТОРРЕНТЫ
Имя файла : Комната страха
Расширение : avi
Формат : AVI
Формат : AVI
Формат/Информация : Audio Video Interleave
Формат/Используется в : avi
Коммерческое название : AVI
Интернет-тип носителя : video/vnd.avi
Чередующаяся : Yes
Кодек : AVI
Кодек : AVI
Кодек/Информация : Audio Video Interleave
Кодек/Используется в : avi
Размер файла : 1465610240
Размер файла : 1,36 Гбайт
Размер файла : 1 Гбайт
Размер файла : 1,4 Гбайт
Размер файла : 1,36 Гбайт
Размер файла : 1,365 Гбайт
Продолжительность : 6442000
Продолжительность : 1 ч. 47 м.
Продолжительность : 1 ч. 47 м. 22 с. 0 мс.
Продолжительность : 1 ч. 47 м.
Продолжительность : 01:47:22.000
Общий поток : 1820069
Общий поток : 1820 Кбит/сек
Размер потока : 5568920
Размер потока : 5,31 Мбайт (0%)
Размер потока : 5 Мбайт
Размер потока : 5,3 Мбайт
Размер потока : 5,31 Мбайт
Размер потока : 5,311 Мбайт
Размер потока : 5,31 Мбайт (0%)
Пропорции потока : 0.00380
Дата файла : UTC 2013-09-28 01:30:49.662
Дата файла (местная) : 2013-09-28 08:30:49.662
Дата изменения файла : UTC 2013-09-28 01:33:39.753
Дата изменения файла (местная) : 2013-09-28 08:33:39.753
Программа кодирования : VirtualDubMod 1.5.4.1 (build 2178/release)
Библиотека кодирования : VirtualDubMod build 2178/release
Библиотека кодирования : VirtualDubMod build 2178/release

Видео
Кол-во : 263
Кол-во потоков такого типа : 1
Тип потока : Video
Тип потока : Видео
Идентификатор типа потока : 0
StreamOrder : 0
Inform : 1365 Кбит/сек, 720*288 (2,500), в 25,000 кадров/сек, MPEG-4 Visual (XviD) (Advanced Simple@L5) (Custom Matrix)
Идентификатор : 0
Идентификатор : 0
Формат : MPEG-4 Visual
Коммерческое название : MPEG-4 Visual
Профиль формата : Advanced Simple@L5
Настройки формата : Custom Matrix
Параметр BVOP формата : No
Параметр BVOP формата : Нет
Параметр QPel формата : No
Параметр QPel формата : Нет
Параметр GMC формата : 0
Параметр GMC формата : Без точки перехода
Параметр матрицы формата : Custom
Параметр матрицы формата : Выборочная
Format_Settings_Matrix_Data : 0809090A0B0A0B0C0C0B0C0D0E0D0C0E0F10100F0E101011121110101212131414131212141516171615141618191918161A1C1D1C1A1E22221E262E26343448 / 1010101111111111111112121312121313141413131514151615141517161718181716171818191A1918181B1C1D1D1C1B202428242028303028343C3440406A
Интернет-тип носителя : video/MP4V-ES
Идентификатор кодека : XVID
Идентификатор кодека/Подсказка : XviD
Идентификатор кодека/Ссылка : http://mediaarea.net/XVID
Кодек : XVID
Кодек : XviD
Кодек/Семейство : MPEG-4V
Кодек/Информация : XviD project
Кодек/Ссылка : http://www.xvid.org/Downloads.15.0.html
Кодек/CC : XVID
Профиль кодека : Advanced Simple@L5
Настройки кодека : Custom Matrix
Параметр пакетного потока данных кодека : No
Параметр BVOP кодека : No
Параметр QPel кодека : No
Параметр GMC кодека : 0
Параметр GMC кодека : Без точки перехода
Параметр матрицы кодека : Custom
Продолжительность : 6442000
Продолжительность : 1 ч. 47 м.
Продолжительность : 1 ч. 47 м. 22 с. 0 мс.
Продолжительность : 1 ч. 47 м.
Продолжительность : 01:47:22.000
Битрейт : 1365154
Битрейт : 1365 Кбит/сек
Ширина : 720
Ширина : 720 пикселей
Высота : 288
Высота : 288 пикселей
Пропорции пикселя : 1.000
Соотношение сторон : 2.500
Соотношение сторон : 2,500
Частота кадров : 25.000
Частота кадров : 25,000 кадров/сек
Счётчик кадров : 161050
Разрешение : 8
Разрешение : 8 бит
Колориметрия : 4:2:0
Цветовое пространство : YUV
Субдискретизация насыщенности : 4:2:0
Битовая глубина : 8
Битовая глубина : 8 бит
Тип развёртки : Progressive
Тип развёртки : Прогрессивная
Переплетение : PPF
Переплетение : Прогрессивная
Метод сжатия : Lossy
Метод сжатия : С потерями
Бит/(Пиксели*Кадры) : 0.263
Задержка : 0
Задержка : 00:00:00.000
Размер потока : 1099290216
Размер потока : 1,02 Гбайт (75%)
Размер потока : 1 Гбайт
Размер потока : 1,0 Гбайт
Размер потока : 1,02 Гбайт
Размер потока : 1,024 Гбайт
Размер потока : 1,02 Гбайт (75%)
Пропорции потока : 0.75006
Библиотека кодирования : XviD0047
Библиотека кодирования : XviD 1.2.0.dev47 (UTC 2006-11-01)
Библиотека кодирования/Имя : XviD
Библиотека кодирования/Version : 1.2.0.dev47
Библиотека кодирования/Дата : UTC 2006-11-01

Аудио
Кол-во : 252
Кол-во потоков такого типа : 1
Тип потока : Audio
Тип потока : Аудио
Идентификатор типа потока : 0
StreamOrder : 1
Inform : 448 Кбит/сек, 48,0 КГц, 16 бит, 6 каналов, AC-3
Идентификатор : 1
Идентификатор : 1
Формат : AC-3
Формат/Информация : Audio Coding 3
Коммерческое название : AC-3
Расширение режима : CM (complete main)
Параметр Endianness формата : Big
Идентификатор кодека : 2000
Кодек : AC3
Кодек : AC3
Кодек/Семейство : AC3
Кодек/Информация : Dolby AC3
Кодек/CC : 2000
Продолжительность : 6441984
Продолжительность : 1 ч. 47 м.
Продолжительность : 1 ч. 47 м. 21 с. 984 мс.
Продолжительность : 1 ч. 47 м.
Продолжительность : 01:47:21.984
Вид битрейта : CBR
Вид битрейта : Постоянный
Битрейт : 448000
Битрейт : 448 Кбит/сек
Каналы : 6
Каналы : 6 каналов
Расположение каналов : Front: L C R, Side: L R, LFE
Расположение каналов : 3/2/0.1
Частота : 48000
Частота : 48,0 КГц
Количество образцов : 309215232
Разрешение : 16
Разрешение : 16 бит
Битовая глубина : 16
Битовая глубина : 16 бит
Метод сжатия : Lossy
Метод сжатия : С потерями
Задержка : 0
Задержка : 00:00:00.000
Задержка в оригинале : Stream
Задержка в оригинале : 'Сырой' поток
Задержка видео : 0
Задержка видео : 0
Размер потока : 360751104
Размер потока : 344 Мбайт (25%)
Размер потока : 344 Мбайт
Размер потока : 344 Мбайт
Размер потока : 344 Мбайт
Размер потока : 344,0 Мбайт
Размер потока : 344 Мбайт (25%)
Пропорции потока : 0.24614
Выравнивание : Split
Выравнивание : Разделение по промежуткам
Продолжительность промежутка : 2.40
Продолжительность промежутка : 96
Продолжительность промежутка : 96 мс. (2,40 видеокадра)
Время предзагрузки промежутка : 96
Время предзагрузки промежутка : 96 мс.
bsid : 8
dialnorm : -31
dialnorm/String : -31 dB
compr : 12.04
compr/String : 12.04 dB
dynrng : 6.02
dynrng/String : 6.02 dB
acmod : 7
lfeon : 1
dialnorm_Average : -31
dialnorm_Average/String : -31 dB
dialnorm_Minimum : -31
dialnorm_Minimum/String : -31 dB
dialnorm_Maximum : -31
dialnorm_Maximum/String : -31 dB
dialnorm_Count : 899
compr_Average : 6.33
compr_Average/String : 6.33 dB
compr_Minimum : -0.28
compr_Minimum/String : -0.28 dB
compr_Maximum : 12.04
compr_Maximum/String : 12.04 dB
compr_Count : 899
dynrng_Average : 4.22
dynrng_Average/String : 4.22 dB
dynrng_Minimum : 0.00
dynrng_Minimum/String : 0.00 dB
dynrng_Maximum : 6.02
dynrng_Maximum/String : 6.02 dB
dynrng_Count : 899

piratbit.org



Скачать Комната страха через торрент http://s019.radikal.ru/i628/1309/e2/3590f1d531d2.jpg Скачать фильм Комната страха через торрент бесплантно в хорошем качестве Описание: Мэг Олтман с дочерью Сарой въехала в свой только что купленный дом, ранее принадлежащий миллионеру. Хороший дом, в хорошем ... 10 10 9
Info! Золотая раздача, скачанное не засчитывается.
Торрент: Зарегистрирован [2013-09-28 02:01] · скачан: 69 раз
Статус: √ проверено
Размер: 1.36 GB
Как cкачать? Как скачать Комната страха через торрент | UTorrent

% Раздел Тема Автор DL S | L
Фильмы с авторской озвучкой [ 1.65 GB ] Комната страха / Panic Room [2002 DVDRip] [AVO] killermax2013 Скачать
1 | 0
Фильмы (WEB-DL 720p, 1080p) [ 4.12 GB ] Комната страха / Panic Room [2002 HDTVRip лицензия] Sудья Скачать
1 | 0
Фильмы 2001-2005 [ 1.46 GB ] Комната страха / Panic Room [2002 HDTV лицензия] .spring Скачать
1 | 0

28-11-2019 20:33  

Отключить всю рекламу на сайте

    Дорогой пользователь! Огромная просьба, поблагодарите релизера, оцените раздачу и оставьте свои комментарий, если Вы скачали Комната страха через торрент бесплатно! Внесите свою лепту в развитие PiratBit!
    Комментировать посты могут только пользователи прошедшие не сложную регистрацию
    Показать сообщения:    

    Комната страха через торрент
    Скачать бесплатно Комната страха
    Комната страха скачать торрент
    Комната страха смотреть онлайн
    Cкачать фильм Комната страха бесплатно
    Комната страха скачать торрент в хорошем качестве
    Комната страха смотреть онлайн бесплатно в хорошем качестве


    Вы не можете начинать темы
    Вы не можете отвечать на сообщения
    Вы не можете редактировать свои сообщения
    Вы не можете удалять свои сообщения
    Вы не можете голосовать в опросах
    Вы не можете прикреплять файлы к сообщениям
    Вы можете скачивать файлы