1 сезон

3 сезон

iTunes

1

iTunes

MVO

iTunes

13

1 сезон

RePack

30

Deluxe

pack

Лицензия

ВАЖНО

ИГРА 18+

pack

RePack

MK11

RePack

jed

RePack

fifa19

RePack

RDR2

RePack

NEED FOR SPEED™ PAYBACK

4 сезон

9 сезон

Бесстыжие 9 сезон

Все сериалы

все сериалы на PB.wtf

RePack

FAR CRY 5

Anonymous, добрый вечер, мы катастрофически не успеваем собрать деньги на оплату серверов, помогите нам пожалуйста 5,10,15р., для нас важна любая помощь . В качестве благодарности мы отключим Вам всю рекламу на сайте (укажите свой ник в строку Ваше имя)!

×
  
Magnet ссылка

Призраки Марса / Ghosts of Mars (Джон Карпентер / John Carpenter) [ 2001 , США , ужасы, фантастика, боевик , DVDRip, MVO ] piratbit.org

Призраки Марса через торрент piratbit.org

Размер: 1.46 GB | Добавлен: 7 лет 9 мес. назад | Торрент скачан:129 раз
Скачать  

04-10-2013 13:25 Призраки Марса Скачать торрент  

Призраки Марса / Ghosts of MarsГод выпуска:2001
Страна: США
Жанр: ужасы, фантастика, боевик

Продолжительность: 01:38:07
Перевод: Профессиональный (многоголосый, закадровый)

Субтитры: Нет
Режиссер: Джон Карпентер / John Carpenter

В ролях: Наташа Хенстридж (Lieutenant Melanie Ballard), Айс Кьюб (Desolation Williams), Джейсон Стэйтем (Sgt Jericho Butler), Клеа ДюВалл (Bashira Kincaid), Пэм Гриер (Commander Helena Braddock), Джоанна Кэссиди (Whitlock), Ричард Цетрон (Big Daddy Mars), Розмари Форсайт (Inquisitor), Лайам Вейт (Michael Descanso), Дуан Дэвис (Uno), Лобо Себастьян (Dos), Родни А. Грант (Tres)
Описание:
Планета Марс, 2176 год. На одну из дальних шахтерских станций на специальном поезде отправляется отряд полиции, чтобы забрать и доставить в город опасного преступника Уильямса, подозреваемого в убийстве и грабеже. Однако члены отряда еще даже не догадываются о той опасности, которую им приготовил Марс. Ведь отважным полицейским придется столкнуться не столько с людьми, сколько с таинственными и зловещими силами, живущими в самой планете.
Рейтинг
kinopoisk.ru: 5.335 (4028)
imdb.com: 4.80 (30 979)
MPAA: R - Лицам до 17 лет обязательно присутствие взрослого
Качество: DVDRip
Формат: AVI
Видео кодек: XviD
Аудио кодек: AC3
Видео: XviD, 720x304 (2.35:1), 1733 kbps, 23,976 fps, 0,330 bpp
Аудио: AC3 / 5.1 / 48 kHz / 384 kbps / 16 bit© Оформление by ФёдорOFF
General
Complete name : D:раздачиPrizraki.Marsa.2001.XviD.DVDRip.avi
Format : AVI
Format/Info : Audio Video Interleave
File size : 1.46 GiB
Duration : 1h 38mn
Overall bit rate : 2 126 Kbps
Movie name : Призраки Марса / Ghosts of Mars (2001) BDRip
Writing application : VirtualDubMod 1.5.10.2 (build 2542/release)
Comment : 24.03.2009

Video
ID : 0
Format : MPEG-4 Visual
Format profile : Advanced Simple@L5
Format settings, BVOP : 1
Format settings, QPel : No
Format settings, GMC : No warppoints
Format settings, Matrix : Default (MPEG)
Codec ID : XVID
Codec ID/Hint : XviD
Duration : 1h 38mn
Bit rate : 1 733 Kbps
Width : 720 pixels
Height : 304 pixels
Display aspect ratio : 2.35:1
Frame rate : 23.976 fps
Color space : YUV
Chroma subsampling : 4:2:0
Bit depth : 8 bits
Scan type : Progressive
Compression mode : Lossy
Bits/(Pixel*Frame) : 0.330
Stream size : 1.19 GiB (82%)
Writing library : XviD 1.2.1 (UTC 2008-12-04)

Audio
ID : 1
Format : AC-3
Format/Info : Audio Coding 3
Mode extension : CM (complete main)
Codec ID : 2000
Duration : 1h 38mn
Bit rate mode : Constant
Bit rate : 384 Kbps
Channel(s) : 6 channels
Channel positions : Front: L C R, Side: L R, LFE
Sampling rate : 48.0 KHz
Bit depth : 16 bits
Compression mode : Lossy
Stream size : 270 MiB (18%)
Alignment : Split accross interleaves
Interleave, duration : 42 ms (1.00 video frame)
Interleave, preload duration : 500 ms
piratbit.org



Скачать Призраки Марса через торрент http://i2.imageban.ru/out/2013/10/04/ff78a63b7ef7c36ba7541458c20c986a.jpg Скачать фильм Призраки Марса через торрент бесплантно в хорошем качестве Описание: Планета Марс, 2176 год. На одну из дальних шахтерских станций на специальном поезде отправляется отряд полиции, чтобы забрать и ... 9.9 10 14
Info! Золотая раздача, скачанное не засчитывается.
Торрент: Зарегистрирован [2013-10-04 13:25] · скачан: 129 раз
Статус: √ проверено
Размер: 1.46 GB
Как cкачать? Как скачать Призраки Марса через торрент | UTorrent

% Раздел Тема Автор DL S | L
Фильмы 2001-2005 [ 2.18 GB ] Призраки Марса / Ghosts of Mars [2001 BDRip-AVC] MVO [] potroks Скачать
1 | 0
Фильмы 2001-2005 [ 2.91 GB ] Призраки Марса / Ghosts of Mars [2001 BDRip-AVC многоголосый - ] _KaisiK_ Скачать
1 | 0

28-11-2019 20:33  

Отключить всю рекламу на сайте

04-10-2013 13:51 Призраки Марса Скачать торрент  

отец уве болла это снималpiratbit.org



    Дорогой пользователь! Огромная просьба, поблагодарите релизера, оцените раздачу и оставьте свои комментарий, если Вы скачали Призраки Марса через торрент бесплатно! Внесите свою лепту в развитие PiratBit!
    Комментировать посты могут только пользователи прошедшие не сложную регистрацию
    Показать сообщения:    

    Призраки Марса через торрент
    Скачать бесплатно Призраки Марса
    Призраки Марса скачать торрент
    Призраки Марса смотреть онлайн
    Cкачать фильм Призраки Марса бесплатно
    Призраки Марса скачать торрент в хорошем качестве
    Призраки Марса смотреть онлайн бесплатно в хорошем качестве


    Вы не можете начинать темы
    Вы не можете отвечать на сообщения
    Вы не можете редактировать свои сообщения
    Вы не можете удалять свои сообщения
    Вы не можете голосовать в опросах
    Вы не можете прикреплять файлы к сообщениям
    Вы можете скачивать файлы