Ссылка на приватное зеркало нашего сайта всего за 1$. Внимание количество ограничено!!!

2 сезон

iTunes

iTunes

1

iTunes

iTunes

iTunes

WEBRip

iTunes

30
pack

Вам бонус

ВАЖНО

!!Акция!!

Alien_RageХит недели

RePack

Horizon Zero Dawn

ИГРА 18+

pack

RePack

jed

!!Акция!!

Alien_Rage

RePack

fifa19

RePack

Assassins Creed: Odyssey

RePack

NEED FOR SPEED™ PAYBACK

4 сезон

9 сезон

Бесстыжие 9 сезон

Все сериалы

все сериалы на PB.wtf

RePack

FAR CRY 5
  

Свора / The Breed (Николас Мастандреа) [2006, ужасы, триллер, BDRip,Дубляж] piratbit.org

Свора через торрент piratbit.org

Размер: 1.46 GB | Добавлен: 6 лет 11 мес. назад | Торрент скачан:127 раз
Скачать  

09-10-2013 11:40 Свора Скачать торрент  

Свора / The Breed«Охота началась: ты следующая жертва»

Год выпуска: 2006
Страна: Германия , ЮАР , США
Жанр: ужасы, триллер
Продолжительность: 01:30:54
Перевод: Профессиональный (дублированный)

Режиссер: Николас Мастандреа
Сценарий: Роберт Конте, Питер Мартин Вортманн
Продюсер: Томас Бекер, Дэвид Ланкастер, Марианн Маддалена, ...

В ролях: Мишель Родригес / Michelle Rodriguez (Nicki), Оливер Хадсон / Oliver Hudson (John), Тэрин Мэннинг / Taryn Manning (Sara), Эрик Лайвли / Eric Lively (Matt), Хилл Харпер / Hill Harper (Noah), Ник Борэйни / Nick Boraine (Luke), Лиза-Мари Шнайдер / Lisa-Marie Schneider (Jenny)


Описание: Увлекательная поездка на заброшенный остров обернулась настоящим кошмаром для веселой компании подростков. Пребывая в уверенности, что вокруг никого нет, друзья решают воспользоваться всеми преимуществами уединения и оторваться по полной программе! Неожиданно они подвергаются нападению диких собак, обосновавшихся на этом острове. Очень скоро, загнанные в угол подростки понимают, что имеют дело не с простыми собаками. Обитающие на острове твари, с измененным генетическим кодом, обладают необыкновенным, почти сверхъестественным умом и неутолимым голодом, а укусы их несут необратимые изменения в организме человека…



Качество: BDRip
Формат: AVI
Видео кодек: XviD
Аудио кодеk: AC3
Видео: 720x400 (16:9), 23.976 fps, XviD, 1 834 Kbps
Аудио: Аудио #1: AC3, 448 Kbps, 48.0 KHz, 6 ch

Код:

General
Complete name                    : Svora.2006..avi
Format                           : AVI
Format/Info                      : Audio Video Interleave
File size                        : 1.46 GiB
Duration                         : 1h 30mn
Overall bit rate                 : 2 292 Kbps
Writing application              : VirtualDubMod 1.5.10.2 (build 2540/release)
Writing library                  : VirtualDubMod build 2540/release

Video
ID                               : 0
Format                           : MPEG-4 Visual
Format profile                   : Advanced Simple@L5
Format settings, BVOP            : Yes
Format settings, QPel            : No
Format settings, GMC             : No warppoints
Format settings, Matrix          : Default (MPEG)
Muxing mode                      : Packed bitstream
Codec ID                         : XVID
Codec ID/Hint                    : XviD
Duration                         : 1h 30mn
Bit rate                         : 1 834 Kbps
Width                            : 720 pixels
Height                           : 400 pixels
Display aspect ratio             : 16:9
Frame rate                       : 23.976 fps
Color space                      : YUV
Chroma subsampling               : 4:2:0
Bit depth                        : 8 bits
Scan type                        : Progressive
Bits/(Pixel*Frame)               : 0.266
Stream size                      : 1.16 GiB (80%)
Writing library                  : XviD 1.2.1 (UTC 2008-12-04)

Audio
ID                               : 1
Format                           : AC-3
Format/Info                      : Audio Coding 3
Mode extension                   : CM (complete main)
Codec ID                         : 2000
Duration                         : 1h 30mn
Bit rate mode                    : Constant
Bit rate                         : 448 Kbps
Channel(s)                       : 6 channels
Channel positions                : Front: L C R, Side: L R, LFE
Sampling rate                    : 48.0 KHz
Bit depth                        : 16 bits
Stream size                      : 291 MiB (20%)
Alignment                        : Split accross interleaves
Interleave, duration             : 42 ms (1.00 video frame)
Interleave, preload duration     : 500 ms

piratbit.org



Скачать Свора через торрент http://i59.fastpic.ru/big/2013/1009/1a/68747ae12db71de2b5f5b951e2335d1a.jpg Скачать фильм Свора через торрент бесплантно в хорошем качестве Описание: Увлекательная поездка на заброшенный остров обернулась настоящим кошмаром для веселой компании подростков. Пребывая в ... 10 10 11
Info! Золотая раздача, скачанное не засчитывается.
Торрент: Зарегистрирован [2013-10-09 11:40] · скачан: 127 раз
Статус: √ проверено
Размер: 1.46 GB
Как cкачать? Как скачать Свора через торрент | qTorrent

% Раздел Тема Автор DL S | L
Гонзо [ 1.23 GB ] Свора Маленьких Шлюх / The Brat Pack [2019 All Sex Oral Gonzo Legal Teen Facial Couples WEB-DLRip] sheker187 Скачать
1 | 0
Фильмы [HD 720p, 1080p] (Хороший звук DUB, MVO) [ 4.49 GB ] Свора / The Breed [2006 BDRip 720p by msltel] DUB msltel Скачать
1 | 0
Фильмы [HD 720p, 1080p] (Хороший звук DUB, MVO) [ 12.31 GB ] Свора / The Breed [2006 BDRip 1080p by msltel] DUB msltel Скачать
1 | 0
Фильмы (Blu-ray, BD-Remux, HDDVD) [ 13.39 GB ] Свора / The Breed [2006 BDRemux] Dub / Ворон Скачать
1 | 0
Фильмы 2006-2008 [ 1.7 GB ] Свора / Breed The [2006 BDRip] -=Cherry=- Скачать
1 | 0

28-11-2019 20:33  

Отключить всю рекламу на сайте

    Дорогой пользователь! Огромная просьба, поблагодарите релизера, оцените раздачу и оставьте свои комментарий, если Вы скачали Свора через торрент бесплатно! Внесите свою лепту в развитие PiratBit!
    Комментировать посты могут только пользователи прошедшие не сложную регистрацию
    Показать сообщения:    

    Свора через торрент
    Скачать бесплатно Свора
    Свора скачать торрент
    Свора смотреть онлайн
    Cкачать фильм Свора бесплатно
    Свора скачать торрент в хорошем качестве
    Свора смотреть онлайн бесплатно в хорошем качестве


    Вы не можете начинать темы
    Вы не можете отвечать на сообщения
    Вы не можете редактировать свои сообщения
    Вы не можете удалять свои сообщения
    Вы не можете голосовать в опросах
    Вы не можете прикреплять файлы к сообщениям
    Вы можете скачивать файлы