1 сезон

iTunes

iTunes

1

Line

MVO

iTunes

13

1 сезон

RePack

30

Deluxe

pack

Лицензия

ВАЖНО

ИГРА 18+

pack

RePack

MK11

RePack

jed

RePack

fifa19

RePack

RDR2

RePack

NEED FOR SPEED™ PAYBACK

4 сезон

9 сезон

Бесстыжие 9 сезон

Все сериалы

все сериалы на PB.wtf

RePack

FAR CRY 5

Anonymous, добрый день, мы катастрофически не успеваем собрать деньги на оплату серверов, помогите нам пожалуйста 5,10,15р., для нас важна любая помощь . В качестве благодарности мы отключим Вам всю рекламу на сайте (укажите свой ник в строку Ваше имя)!

×
  
Magnet ссылка

Смертельный лабиринт / Дом для девяти / House of 9 (Стивен Р. Монро ) [2004 г., ужасы, драма, триллер , DVDRip, Профессиональный (многоголосый, закадровый] MVO] piratbit.org

Смертельный лабиринт через торрент piratbit.org

Размер: 1.46 GB | Добавлен: 7 лет 9 мес. назад | Торрент скачан:92 раза
Скачать  

16-10-2013 13:49 Смертельный лабиринт Скачать торрент  


Смертельный лабиринт / House of 9

«Девять незнакомцев. Один дом. И только один выберется живым»

Год выпуска: 2004
Страна: Великобритания , Румыния , Германия , Франция
Жанр: ужасы, триллер, драма, детектив слова
Продолжительность: 01:26:46
Перевод: Профессиональный (многоголосый закадровый)
Cубтитры: Нет

Режиссер: Стивен Р. Монро
Сценарий: Филипп Видал
Продюсер: Карен Элисон Хэмилтон, Филипп Мартинез, Шейх Мохамед Бин Салман, ...
Оператор: Дэмиэн Бромли
Композитор : С.П. Олинс, Марк Филлипс, Марк Райдер
Художник: Адриан Кэнсер, Роберт Марин, Баба Новак, ...
Монтаж: Кристина Хэмилтон

В ролях: Деннис Хоппер / Dennis Hopper (Father Duffy), Келли Брук / Kelly Brook (Lea), Ипполит Жирардо / Hippolyte Girardot (Francis), Питер Капальди / Peter Capaldi (Max Roy), Сьюзи Эми / Susie Amy (Claire Leevy), Раффаэлло Дегруттола / Raffaello Degruttola (Jay), Эшли Уолтерс / Ashley Walters (в титрах: Asher D) (Al B), Морвен Кристи / Morven Christie (Shona)

Описание: «Зачем любить ближнего своего, когда можно его убить?» — неожиданный вопрос для участников жестокой забавы таинственного садиста. Девять незнакомцев похищены средь бела дня, чтобы очнуться в запертом доме. Теперь они — пешки в смертельной игре на выживание. Условия просты — единственный оставшийся в живых получит в награду $5000000.В четырех мрачных стенах, под наблюдением вездесущего «Старшего Брата», отчаяние и страх быстро сменяется алчностью и ненавистью. Кто первым прольет кровь собрата по несчастью? Кто последним превратится в зверя? Кто — хозяин этой тюрьмы? Узнает ли ответ окровавленный победитель?

Бюджет: $6 000 000
Премьера (мир): 20 мая 2004.
Рейтинг MPAA: Лицам до 17 лет обязательно присутствие взрослого

Качество: DVDRip
Формат: AVI
Видео кодек: XviD
Аудио кодек: AC3
Видео: 688x512 (4:3), 25.000 fps, XviD, 1 945 Kbps
Аудио: Аудио #1: AC3, 448 Kbps, 48.0 KHz, 6 ch RUS MVO



Код:

General
Complete name                    : Smertel'nyu_labitint_DVDRip_[rutracker.org]_by_Scarabey.avi
Format                           : AVI
Format/Info                      : Audio Video Interleave
File size                        : 1.46 GiB
Duration                         : 1h 26mn
Overall bit rate                 : 2 403 Kbps
Writing application              : VirtualDubMod 1.5.10.2 (build 2540/release)
Writing library                  : VirtualDubMod build 2540/release

Video
ID                               : 0
Format                           : MPEG-4 Visual
Format profile                   : Advanced Simple@L5
Format settings, BVOP            : Yes
Format settings, QPel            : No
Format settings, GMC             : No warppoints
Format settings, Matrix          : Custom
Codec ID                         : XVID
Codec ID/Hint                    : XviD
Duration                         : 1h 26mn
Bit rate                         : 1 945 Kbps
Width                            : 688 pixels
Height                           : 512 pixels
Display aspect ratio             : 4:3
Frame rate                       : 25.000 fps
Color space                      : YUV
Chroma subsampling               : 4:2:0
Bit depth                        : 8 bits
Scan type                        : Progressive
Bits/(Pixel*Frame)               : 0.221
Stream size                      : 1.18 GiB (81%)
Writing library                  : XviD 1.2.1 (UTC 2008-12-04)

Audio
ID                               : 1
Format                           : AC-3
Format/Info                      : Audio Coding 3
Mode extension                   : CM (complete main)
Codec ID                         : 2000
Duration                         : 1h 26mn
Bit rate mode                    : Constant
Bit rate                         : 448 Kbps
Channel(s)                       : 6 channels
Channel positions                : Front: L C R, Side: L R, LFE
Sampling rate                    : 48.0 KHz
Bit depth                        : 16 bits
Stream size                      : 278 MiB (19%)
Alignment                        : Split accross interleaves
Interleave, duration             : 40 ms (1.00 video frame)
Interleave, preload duration     : 500 ms





piratbit.org



Скачать Смертельный лабиринт через торрент https://pic1.kartinco.top/images/41/9knrq.jpg Скачать фильм Смертельный лабиринт через торрент бесплантно в хорошем качестве Описание: «Зачем любить ближнего своего, когда можно его убить?» — неожиданный вопрос для участников жестокой забавы таинственного садиста. ... 9 10 9
Info! Золотая раздача, скачанное не засчитывается.
Торрент: Зарегистрирован [2013-10-16 13:49] · скачан: 92 раз
Статус: √ проверено
Размер: 1.46 GB
Как cкачать? Как скачать Смертельный лабиринт через торрент | UTorrent

28-11-2019 20:33  

Отключить всю рекламу на сайте

16-10-2013 15:40 Смертельный лабиринт Скачать торрент  

бюджет фильма - шесть мегадолларов, приз - пять мегадолларов.
т.е. съёмочная группа получила всего один мегадоллар?piratbit.org



16-10-2013 15:44 Смертельный лабиринт Скачать торрент  

sergunka
Смешно)piratbit.org



18-10-2013 20:54 Смертельный лабиринт Скачать торрент  

sergunka писал(а):

бюджет фильма - шесть мегадолларов, приз - пять мегадолларов.
т.е. съёмочная группа получила всего один мегадоллар?

Да Вы,батенька,в киноиндустрии не первый год работаете piratbit.org



    Дорогой пользователь! Огромная просьба, поблагодарите релизера, оцените раздачу и оставьте свои комментарий, если Вы скачали Смертельный лабиринт через торрент бесплатно! Внесите свою лепту в развитие PiratBit!
    Комментировать посты могут только пользователи прошедшие не сложную регистрацию
    Показать сообщения:    

    Смертельный лабиринт через торрент
    Скачать бесплатно Смертельный лабиринт
    Смертельный лабиринт скачать торрент
    Смертельный лабиринт смотреть онлайн
    Cкачать фильм Смертельный лабиринт бесплатно
    Смертельный лабиринт скачать торрент в хорошем качестве
    Смертельный лабиринт смотреть онлайн бесплатно в хорошем качестве


    Вы не можете начинать темы
    Вы не можете отвечать на сообщения
    Вы не можете редактировать свои сообщения
    Вы не можете удалять свои сообщения
    Вы не можете голосовать в опросах
    Вы не можете прикреплять файлы к сообщениям
    Вы можете скачивать файлы