2 сезон

iTunes

MVO

1

2 сезон

iTunes

iTunes

1 сезон

RePack

30

Новинка

ВАЖНО

ИГРА 18+

pack

RePack

MK11
pack

Легкие деньги

RePack

jed

RePack

fifa19

RePack

RDR2

RePack

NEED FOR SPEED™ PAYBACK

4 сезон

9 сезон

Бесстыжие 9 сезон

Все сериалы

все сериалы на PB.wtf

RePack

FAR CRY 5

Anonymous, добрый день, мы не успеваем собрать деньги на оплату серверов за декабрь и январь, помогите нам пожалуйста в это трудное время. В качестве благодарности мы отключим Вам всю рекламу на сайте (укажите свой ник в строку Ваше имя)!

×
  
Magnet ссылка

1812: Уланская баллада (Олег Фесенко) [2012 г., приключения, BDRip, Оригинал] piratbit.org

1812: Уланская баллада через торрент piratbit.org

Размер: 1.46 GB | Добавлен: 7 лет 2 мес. назад | Торрент скачан:25 раз
Скачать  

21-01-2013 15:14 1812: Уланская баллада Скачать торрент  

1812: Уланская баллада

Год выпуска: 2012
Страна: Россия
Жанр: приключения
Продолжительность: 01:38:44
Перевод: Оригинал
Тип релиза: Лицензия

Режиссер: Олег Фесенко
Продюссер: Глеб Шпригов, Олег Коваленок, Юрий Базик
Сценарий: Глеб Шпригов

Мировой рейтинг IMDB 2.90 (81)


В ролях: Сергей Безруков, Антон Соколов, Анна Чиповская, Анатолий Белый, Станислав Дужников, Валерий Николаев, Алексей Макаров, Борис Клюев, Эрик Фратичелли, Гедиминас Адомайтис

Описание: 1812 год. Накануне решающей битвы при Бородино тайный агент Наполеона похищает план сражения. Об этом становится известно Кутузову, и он посылает на перехват своих лучших улан. Путь их лежит в Польшу, где разворачивается бурный роман Наполеона с графиней Валевской...

Качество: BDRip
Формат: AVI
Видео кодек: XviD
Аудио кодек: AC3
Видео: 720x400 (1.80:1), 24 fps, XviD build 65 ~1717 kbps avg, 0.25 bit/pixel
Аудио#1: 48 kHz, AC3 Dolby Digital, 3/2 (L,C,R,l,r) + LFE ch, ~384.00 kbps avg
General
Complete name : H:кино1812.Ulanskaya.ballada.2012.RUS.BDRip.XviD.AC3..avi
Format : AVI
Format/Info : Audio Video Interleave
File size : 1.46 GiB
Duration : 1h 38mn
Overall bit rate : 2 111 Kbps
Movie name : 1812: Уланская баллада (2012) BDRip
Director : kingsize87
Writing application : VirtualDubMod 1.5.10.2 (build 2542/release)
Copyright :
Comment : 21.01.2013

Video
ID : 0
Format : MPEG-4 Visual
Format profile : Advanced Simple@L5
Format settings, BVOP : 1
Format settings, QPel : No
Format settings, GMC : No warppoints
Format settings, Matrix : Custom
Codec ID : XVID
Codec ID/Hint : XviD
Duration : 1h 38mn
Bit rate : 1 718 Kbps
Width : 720 pixels
Height : 400 pixels
Display aspect ratio : 16:9
Frame rate : 24.000 fps
Color space : YUV
Chroma subsampling : 4:2:0
Bit depth : 8 bits
Scan type : Progressive
Compression mode : Lossy
Bits/(Pixel*Frame) : 0.249
Stream size : 1.18 GiB (81%)
Writing library : XviD 65

Audio
ID : 1
Format : AC-3
Format/Info : Audio Coding 3
Mode extension : CM (complete main)
Codec ID : 2000
Duration : 1h 38mn
Bit rate mode : Constant
Bit rate : 384 Kbps
Channel(s) : 6 channels
Channel positions : Front: L C R, Side: L R, LFE
Sampling rate : 48.0 KHz
Bit depth : 16 bits
Compression mode : Lossy
Stream size : 271 MiB (18%)
Alignment : Split accross interleaves
Interleave, duration : 42 ms (1.00 video frame)
Interleave, preload duration : 500 ms


1812: Уланская баллада скачать торрент


piratbit.org



Скачать 1812: Уланская баллада через торрент http://pic.kartinco.top/images/1/2s5xqqdc15.png Скачать фильм 1812: Уланская баллада через торрент бесплантно в хорошем качестве Описание: 1812 год. Накануне решающей битвы при Бородино тайный агент Наполеона похищает план сражения. Об этом становится известно ... 10 10 3
Info! Золотая раздача, скачанное не засчитывается.
Торрент: Зарегистрирован [2013-10-25 22:02] · скачан: 25 раз
Статус: √ проверено
Размер: 1.46 GB
Как cкачать? Как скачать 1812: Уланская баллада через торрент | UTorrent

% Раздел Тема Автор DL S | L
Наши фильмы (HD, WEB-DL 720p, 1080p) [ 5.46 GB ] 1812: Уланская баллада [2012 BDRip 720p Оригинал] Ke$h@ Скачать
1 | 0
Наши фильмы 2012 [ 1.46 GB ] 1812: Уланская баллада [2012 DVDRip-AVC Оригинал лицензия] Ворон Скачать
1 | 0
Наши фильмы 2012 [ 1.37 GB ] 1812: Уланская баллада [2012 DVDRip Оригинал лицензия] Seedtank Скачать
1 | 0
Наши фильмы (DVD фильмы) [ 5.3 GB ] 1812: Уланская баллада [2012 DVD9] R5 voovaz Скачать
1 | 0
Наши фильмы 2012 [ 702 MB ] 1812: Уланская баллада [2012 DVDRip Оригинал лицензия] Ворон Скачать
1 | 0

28-11-2019 20:33  

Отключить всю рекламу на сайте

21-01-2013 16:19 1812: Уланская баллада Скачать торрент  

Бред полнейший. Досмотреть не смог. Не ожидал увидеть Безрукова в таком хламе.piratbit.org



25-10-2013 22:08 1812: Уланская баллада Скачать торрент  

..банская балладаpiratbit.org



    Дорогой пользователь! Огромная просьба, поблагодарите релизера, оцените раздачу и оставьте свои комментарий, если Вы скачали 1812: Уланская баллада через торрент бесплатно! Внесите свою лепту в развитие PiratBit!
    Комментировать посты могут только пользователи прошедшие не сложную регистрацию
    Показать сообщения:    

    1812: Уланская баллада через торрент
    Скачать бесплатно 1812: Уланская баллада
    1812: Уланская баллада скачать торрент
    1812: Уланская баллада смотреть онлайн
    Cкачать фильм 1812: Уланская баллада бесплатно
    1812: Уланская баллада скачать торрент в хорошем качестве
    1812: Уланская баллада смотреть онлайн бесплатно в хорошем качестве


    Вы не можете начинать темы
    Вы не можете отвечать на сообщения
    Вы не можете редактировать свои сообщения
    Вы не можете удалять свои сообщения
    Вы не можете голосовать в опросах
    Вы не можете прикреплять файлы к сообщениям
    Вы можете скачивать файлы