1 сезон

3 сезон

iTunes

1

iTunes

MVO

iTunes

13

1 сезон

RePack

30

Deluxe

pack

Лицензия

ВАЖНО

ИГРА 18+

pack

RePack

MK11

RePack

jed

RePack

fifa19

RePack

RDR2

RePack

NEED FOR SPEED™ PAYBACK

4 сезон

9 сезон

Бесстыжие 9 сезон

Все сериалы

все сериалы на PB.wtf

RePack

FAR CRY 5

Anonymous, добрый вечер, мы катастрофически не успеваем собрать деньги на оплату серверов, помогите нам пожалуйста 5,10,15р., для нас важна любая помощь . В качестве благодарности мы отключим Вам всю рекламу на сайте (укажите свой ник в строку Ваше имя)!

×
  
Magnet ссылка

Цена страха / The Sum of All Fears (Фил Олден Робинсон / Phil Alden Robinson) [2002 , США, Германия , боевик, триллер, драма , WEB-DLRip , DUB] piratbit.org

Цена страха через торрент piratbit.org

Размер: 1.46 GB | Добавлен: 7 лет 8 мес. назад | Торрент скачан:99 раз
Скачать  

02-11-2013 04:54 Цена страха Скачать торрент  

Цена страха / The Sum of All Fears


Слоган: «27,000 Nuclear Weapons. One Is Missing»
Год выпуска: 2002
Страна: США, Германия
Жанр: боевик, триллер, драма
Продолжительность: 02:03:45
Перевод: Профессиональный (полное дублирование)


Режиссер: Фил Олден Робинсон / Phil Alden Robinson
В ролях: Бен Аффлек (Jack Ryan), Морган Фриман (DCI William Cabot), Бриджет Мойнэхэн (Dr. Cathy Muller), Джеймс Кромуэлл (President Fowler), Лив Шрайбер (John Clark), Майкл Бирн (Anatoli Grushkov), Колм Фиор (Olson), Алан Бейтс (Dressler), Рон Рифкин (Secretary of State Owens), Киаран Хайндс (President Nemerov), Филип Бейкер Холл (Defense Secretary Becker), Ричард Марнер (President Zorkin)

Описание: Когда президент России внезапно умирает, его пост занимает человек, о котором общественности известно достаточно мало. Именно этот факт увеличивает напряженную обстановку в стране. Глава ЦРУ Билл Кэбот принимает на работу молодого аналитика Джека Райана, специалиста по России, чтобы получать достоверную информацию из первых рук.
Вскоре случается ужасное: столица Чечни обзаводится ядерной бомбой. Американцы быстро начинают обвинять во всем русских. Также они недоверчиво относятся к сведениям Райана, который с риском для жизни проводит свои расследования. А он прав.
Террористы провоцируют начало войны между двумя нациями, находясь позади сцены. Когда они успешно взрывают бомбу рядом с Балтимором во время Золотого Кубка, мир уже находится на грани войны. Но... если Райан вовремя достанет необходимые доказательства, то этот поток бедствий прекратится.

Рейтинг
kinopoisk.ru: 6.136 (2122)
imdb.com: 6.30 (65 502)
MPAA: PG-13 - Детям до 13 лет просмотр не желателен
Бюджет: $68 000 000
Сборы в США: $118 907 036
Сборы в мире: $193 921 372
Мировая премьера: 29 мая 2002

  • Качество: WEB-DLRip
  • Формат: AVI
  • Видео кодек: XviD
  • Аудио кодек: AC3
  • Видео: XviD, 720x304 (2.35:1), 1292 kbps, 23,976 fps, 0,246 bpp
  • Аудио: AC3 / 5.1 / 48 kHz / 384 kbps / 16 bit
    • В фильме (на учениях по эвакуации правительства США при ядерной атаке) упоминается некий «мерзавец генерал Булгаков», захвативший Влacть в России, который хочет применить в Чечне ядерное оружие (это является сценарием учений). Интересно, что на момент выхода фильма в российской армии действительно проходил службу генерал Владимир Булгаков, герой России, кавалер многих орденов, который принимал активное участие как в отражении вторжения боевиков в Дагестан, так и в боях Второй чеченской войны, в том числе руководил штурмом Грозного.
    • Спасский (один из российских учёных-атомщиков) - фамилия заместителя руководителя «Росатома».
    Format : AVI
    Format/Info : Audio Video Interleave
    File size : 1.46 GiB
    Duration : 2h 3mn
    Overall bit rate : 1 686 Kbps
    Movie name : The Sum of All Fears
    Writing application : VirtualDubMod 1.5.10.3 | www.virtualdub-fr.org || (build 2550/release)
    Comment : Rip от кэп

    Video
    ID : 0
    Format : MPEG-4 Visual
    Format profile : Advanced Simple@L5
    Format settings, BVOP : 1
    Format settings, QPel : No
    Format settings, GMC : No warppoints
    Format settings, Matrix : Default (MPEG)
    Codec ID : XVID
    Codec ID/Hint : XviD
    Duration : 2h 3mn
    Bit rate : 1 293 Kbps
    Width : 720 pixels
    Height : 304 pixels
    Display aspect ratio : 2.35:1
    Frame rate : 23.976 fps
    Color space : YUV
    Chroma subsampling : 4:2:0
    Bit depth : 8 bits
    Scan type : Progressive
    Compression mode : Lossy
    Bits/(Pixel*Frame) : 0.246
    Stream size : 1.12 GiB (77%)
    Writing library : XviD 73

    Audio
    ID : 1
    Format : AC-3
    Format/Info : Audio Coding 3
    Mode extension : CM (complete main)
    Codec ID : 2000
    Duration : 2h 3mn
    Bit rate mode : Constant
    Bit rate : 384 Kbps
    Channel(s) : 6 channels
    Channel positions : Front: L C R, Side: L R, LFE
    Sampling rate : 48.0 KHz
    Bit depth : 16 bits
    Compression mode : Lossy
    Stream size : 340 MiB (23%)
    Alignment : Split accross interleaves
    Interleave, duration : 42 ms (1.00 video frame)
    Interleave, preload duration : 500 ms
    piratbit.org



  • Скачать Цена страха через торрент http://i3.imageban.ru/out/2013/11/02/7742eb42e2c9f9bf3ae9274639e059b1.png Скачать фильм Цена страха через торрент бесплантно в хорошем качестве Описание: Когда президент России внезапно умирает, его пост занимает человек, о котором общественности известно достаточно мало. Именно ... 9.2 10 5
    Info! Золотая раздача, скачанное не засчитывается.
    Торрент: Зарегистрирован [2013-11-02 11:04] · скачан: 99 раз
    Статус: √ проверено
    Размер: 1.46 GB
    Как cкачать? Как скачать Цена страха через торрент | UTorrent

    % Раздел Тема Автор DL S | L
    Ultra HD (UHD: 2K, 4K, 8K) — видео сверхвысокой чёткости [ 45.51 GB ] Цена страха / The Sum of All Fears [2002 UHD BDRemux 2160p] [Dolby Vision TV] sheker187 Скачать
    1 | 0
    Фильмы [HD 720p, 1080p] (Хороший звук DUB, MVO) [ 14.79 GB ] Цена страха / The Sum of All Fears [2002 военный BDRip 1080p by msltel] DUB MVO 2 x DVO AVO msltel Скачать
    1 | 0
    Ultra HD (UHD: 2K, 4K, 8K) — видео сверхвысокой чёткости [ 52.06 GB ] Цена страха / The Sum of All Fears [2002 UHD BDRemux 2160p] DUB+MVO+2xDVO+AVO bober100 Скачать
    1 | 0
    Фильмы [HD 720p, 1080p] (Хороший звук DUB, MVO) [ 5.99 GB ] Цена страха / The Sum of All Fears [2002 военный BDRip 720p by msltel] DUB MVO 2 x DVO AVO msltel Скачать
    1 | 0
    Ultra HD (UHD: 2K, 4K, 8K) — видео сверхвысокой чёткости [ 60.86 GB ] Цена страха / The Sum of All Fears [2002 UHD Blu-ray 2160p] [HDR + Dolby Vision] sheker187 Скачать
    1 | 0

    28-11-2019 20:33  

    Отключить всю рекламу на сайте

      Дорогой пользователь! Огромная просьба, поблагодарите релизера, оцените раздачу и оставьте свои комментарий, если Вы скачали Цена страха через торрент бесплатно! Внесите свою лепту в развитие PiratBit!
      Комментировать посты могут только пользователи прошедшие не сложную регистрацию
      Показать сообщения:    

      Цена страха через торрент
      Скачать бесплатно Цена страха
      Цена страха скачать торрент
      Цена страха смотреть онлайн
      Cкачать фильм Цена страха бесплатно
      Цена страха скачать торрент в хорошем качестве
      Цена страха смотреть онлайн бесплатно в хорошем качестве


      Вы не можете начинать темы
      Вы не можете отвечать на сообщения
      Вы не можете редактировать свои сообщения
      Вы не можете удалять свои сообщения
      Вы не можете голосовать в опросах
      Вы не можете прикреплять файлы к сообщениям
      Вы можете скачивать файлы