1 сезон

3 сезон

iTunes

1

iTunes

MVO

iTunes

13

1 сезон

RePack

30

Deluxe

pack

Лицензия

ВАЖНО

ИГРА 18+

pack

RePack

MK11

RePack

jed

RePack

fifa19

RePack

RDR2

RePack

NEED FOR SPEED™ PAYBACK

4 сезон

9 сезон

Бесстыжие 9 сезон

Все сериалы

все сериалы на PB.wtf

RePack

FAR CRY 5

Anonymous, добрый вечер, мы катастрофически не успеваем собрать деньги на оплату серверов, помогите нам пожалуйста 5,10,15р., для нас важна любая помощь . В качестве благодарности мы отключим Вам всю рекламу на сайте (укажите свой ник в строку Ваше имя)!

×
  
Magnet ссылка

Крысиные бега / Rat Race (Джерри Цукер / Jerry Zucker) [ 2001 , Канада, США , комедия, приключения , DVDRip ]Профессиональный (полное дублирование) piratbit.org

Крысиные бега через торрент piratbit.org

Размер: 1.46 GB | Добавлен: 7 лет 8 мес. назад | Торрент скачан:128 раз
Скачать  

16-11-2013 05:39 Крысиные бега Скачать торрент  

Крысиные бега / Rat Race
Год выпуска: 2001
Страна: Канада, США
Жанр: комедия, приключения
Продолжительность: 01:47:30
Перевод: Профессиональный (полное дублирование)
Субтитры: Нет

Режиссер: Джерри Цукер / Jerry Zucker
Сценарий: Энди Брэкман / Andy Breckman
Продюсер: Шон Дэниэл / Sean Daniel, Джанет Цукер / Janet Zucker, Джерри Цукер / Jerry Zucker, Джеймс Джекс / James Jacks, Ричард Вэйн / Richard Vane
Оператор: Томас Э. Экермен / Thomas E. Ackerman
Композитор: Джон Пауэлл / John Powell

Роуэн Эткинсон (Enrico Pollini), Кьюба Гудинг мл. (Owen Templeton), Джон Ловиц (Randy Pear), Джон Клиз (Donald P. Sinclair), Вупи Голдберг (Vera Baker), Сет Грин (Duane Cody), Брекин Мейер (Nick Schaffer), Эми Смарт (Tracy Faucet), Винс Вьелуф (Blaine Cody), Ланей Чэпман (Merrill Jennings), Кэти Нэджими (Beverly Pear), Дженика Бергер (Hotel Clerk)

Роли дублировали:Леонид Белозорович (Enrico Pollini), Андрей Бархударов (Owen Templeton), Олег Куценко (Randy Pear), Виктор Петров (Donald P. Sinclair), Светлана Старикова (Vera Baker), Вячеслав Баранов (Duane Cody), Андрей Градов (Nick Schaffer), Татьяна Весёлкина (Tracy Faucet), Владимир Антоник (Blaine Cody), Мария Овчинникова (Merrill Jennings), Людмила Ильина (Beverly Pear), Ольга Плетнёва (Hotel Clerk)

Бюджет: $48 000 000
Сборы в США: $56 618 055
Сборы в мире: $85 498 534

Мировая премьера: 30 июля 2001
Релиз на DVD: 27 апреля 2006,«Союз-Видео»

Описание:Владелец крупнейшего казино Лас-Вегаса решает, что его самым богатым клиентам нужно нечто особенное. Он готовит для них нелегальный тотализатор - «Крысиные бега». Участники забега - обычные люди, случайно выбранные из толпы.
Они получают шанс разбогатеть: кто первым доберется из Лас-Вегаса до захолустного городка Силвер-сити, тот получит 2 млн.$, спрятанных в ячейке камеры хранения. Никто из соискателей и не догадывается, что за каждым их шагом следит хозяин казино и его клиенты, сделавшие собственные ставки на победителя...

Рейтинг
kinopoisk.ru: 7.286 (22 877)
imdb.com: 6.30 (73 709)
MPAA: PG-13 - Детям до 13 лет просмотр не желателен

Качество: DVDRip
Формат: AVI
Видео кодек: XviD
Аудио кодек: AC3
Видео: 1545 Кбит/сек, 720*304 (2,35:1), в 25,000 кадров/сек, MPEG-4 Visual (XviD)
Аудио: 384 Кбит/сек, 48,0 КГц, 16 бит, 6 каналов, AC-3

Общее
Кол-во : 284
Кол-во потоков такого типа : 1
Тип потока : General
Тип потока : Общее
Идентификатор типа потока : 0
Inform : AVI: 1,46 Гбайт, 1 ч. 47 м.
Кол-во видеопотоков : 1
Кол-во аудиопотоков : 1
Video_Format_List : MPEG-4 Visual
Video_Format_WithHint_List : MPEG-4 Visual (XviD)
Видеокодеки : XviD
Audio_Format_List : AC-3
Audio_Format_WithHint_List : AC-3
Аудиокодеки : AC3
Полное имя : H:ТОРРЕНТЫКрысиные_бега.avi
Имя папки : H:ТОРРЕНТЫ
Имя файла : Крысиные_бега
Расширение : avi
Формат : AVI
Формат : AVI
Формат/Информация : Audio Video Interleave
Формат/Используется в : avi
Коммерческое название : AVI
Интернет-тип носителя : video/vnd.avi
Чередующаяся : Yes
Кодек : AVI
Кодек : AVI
Кодек/Информация : Audio Video Interleave
Кодек/Используется в : avi
Размер файла : 1563019264
Размер файла : 1,46 Гбайт
Размер файла : 1 Гбайт
Размер файла : 1,5 Гбайт
Размер файла : 1,46 Гбайт
Размер файла : 1,456 Гбайт
Продолжительность : 6450000
Продолжительность : 1 ч. 47 м.
Продолжительность : 1 ч. 47 м. 30 с. 0 мс.
Продолжительность : 1 ч. 47 м.
Продолжительность : 01:47:30.000
Общий поток : 1938629
Общий поток : 1939 Кбит/сек
Размер потока : 7829879
Размер потока : 7,47 Мбайт (1%)
Размер потока : 7 Мбайт
Размер потока : 7,5 Мбайт
Размер потока : 7,47 Мбайт
Размер потока : 7,467 Мбайт
Размер потока : 7,47 Мбайт (1%)
Пропорции потока : 0.00501
Заголовок : Rat Race 2001
Название фильма : Rat Race 2001
Режиссёр : Petey [torrents.ru]
Жанр : Adventure
Дата файла : UTC 2013-11-16 05:13:29.573
Дата файла (местная) : 2013-11-16 12:13:29.573
Дата изменения файла : UTC 2013-11-16 05:19:13.945
Дата изменения файла (местная) : 2013-11-16 12:19:13.945
Программа кодирования : VirtualDubMod 1.5.10.2 (build 2540/release)
Библиотека кодирования : VirtualDubMod build 2540/release
Библиотека кодирования : VirtualDubMod build 2540/release
Формат оригинала/Имя : Movie

Видео
Кол-во : 263
Кол-во потоков такого типа : 1
Тип потока : Video
Тип потока : Видео
Идентификатор типа потока : 0
StreamOrder : 0
Inform : 1545 Кбит/сек, 720*304 (2,35:1), в 25,000 кадров/сек, MPEG-4 Visual (XviD) (Advanced Simple@L5) (BVOP1 / Custom Matrix)
Идентификатор : 0
Идентификатор : 0
Формат : MPEG-4 Visual
Коммерческое название : MPEG-4 Visual
Профиль формата : Advanced Simple@L5
Настройки формата : BVOP1 / Custom Matrix
Параметр BVOP формата : 1
Параметр BVOP формата : 1
Параметр QPel формата : No
Параметр QPel формата : Нет
Параметр GMC формата : 0
Параметр GMC формата : Без точки перехода
Параметр матрицы формата : Custom
Параметр матрицы формата : Выборочная
Format_Settings_Matrix_Data : 080E0E0E0E0E0E0E0E0E0F0E0F0E0F0F0F0F0F0F0F1210111211101215131315151313151616171A171616191B1E1E1B191F2326231F282E2E28383D384C4C63 / 131313131313131313131413141314151415151415181617181716181C1A1A1C1C1A1A1C1D1D1F231F1D1D2224292924222A3033302A373F3F374C534C676786
Интернет-тип носителя : video/MP4V-ES
Идентификатор кодека : XVID
Идентификатор кодека/Подсказка : XviD
Идентификатор кодека/Ссылка : http://mediaarea.net/XVID
Кодек : XVID
Кодек : XviD
Кодек/Семейство : MPEG-4V
Кодек/Информация : XviD project
Кодек/Ссылка : http://www.xvid.org/Downloads.15.0.html
Кодек/CC : XVID
Профиль кодека : Advanced Simple@L5
Настройки кодека : BVOP / Custom Matrix
Параметр пакетного потока данных кодека : No
Параметр BVOP кодека : Yes
Параметр QPel кодека : No
Параметр GMC кодека : 0
Параметр GMC кодека : Без точки перехода
Параметр матрицы кодека : Custom
Продолжительность : 6450000
Продолжительность : 1 ч. 47 м.
Продолжительность : 1 ч. 47 м. 30 с. 0 мс.
Продолжительность : 1 ч. 47 м.
Продолжительность : 01:47:30.000
Битрейт : 1544977
Битрейт : 1545 Кбит/сек
Ширина : 720
Ширина : 720 пикселей
Высота : 304
Высота : 304 пикселя
Пропорции пикселя : 1.000
Соотношение сторон : 2.368
Соотношение сторон : 2,35:1
Частота кадров : 25.000
Частота кадров : 25,000 кадров/сек
Счётчик кадров : 161250
Разрешение : 8
Разрешение : 8 бит
Колориметрия : 4:2:0
Цветовое пространство : YUV
Субдискретизация насыщенности : 4:2:0
Битовая глубина : 8
Битовая глубина : 8 бит
Тип развёртки : Progressive
Тип развёртки : Прогрессивная
Переплетение : PPF
Переплетение : Прогрессивная
Метод сжатия : Lossy
Метод сжатия : С потерями
Бит/(Пиксели*Кадры) : 0.282
Задержка : 0
Задержка : 00:00:00.000
Размер потока : 1245637769
Размер потока : 1,16 Гбайт (80%)
Размер потока : 1 Гбайт
Размер потока : 1,2 Гбайт
Размер потока : 1,16 Гбайт
Размер потока : 1,160 Гбайт
Размер потока : 1,16 Гбайт (80%)
Пропорции потока : 0.79694
Библиотека кодирования : XviD0050
Библиотека кодирования : XviD 1.2.1 (UTC 2008-12-04)
Библиотека кодирования/Имя : XviD
Библиотека кодирования/Version : 1.2.1
Библиотека кодирования/Дата : UTC 2008-12-04

Аудио
Кол-во : 250
Кол-во потоков такого типа : 1
Тип потока : Audio
Тип потока : Аудио
Идентификатор типа потока : 0
StreamOrder : 1
Inform : 384 Кбит/сек, 48,0 КГц, 16 бит, 6 каналов, AC-3
Идентификатор : 1
Идентификатор : 1
Формат : AC-3
Формат/Информация : Audio Coding 3
Коммерческое название : AC-3
Расширение режима : CM (complete main)
Параметр Endianness формата : Big
Идентификатор кодека : 2000
Кодек : AC3
Кодек : AC3
Кодек/Семейство : AC3
Кодек/Информация : Dolby AC3
Кодек/CC : 2000
Продолжительность : 6448992
Продолжительность : 1 ч. 47 м.
Продолжительность : 1 ч. 47 м. 28 с. 992 мс.
Продолжительность : 1 ч. 47 м.
Продолжительность : 01:47:28.992
Вид битрейта : CBR
Вид битрейта : Постоянный
Битрейт : 384000
Битрейт : 384 Кбит/сек
Каналы : 6
Каналы : 6 каналов
Расположение каналов : Front: L C R, Side: L R, LFE
Расположение каналов : 3/2/0.1
Частота : 48000
Частота : 48,0 КГц
Количество образцов : 309551616
Разрешение : 16
Разрешение : 16 бит
Битовая глубина : 16
Битовая глубина : 16 бит
Метод сжатия : Lossy
Метод сжатия : С потерями
Задержка : 0
Задержка : 00:00:00.000
Задержка в оригинале : Stream
Задержка в оригинале : 'Сырой' поток
Задержка видео : 0
Задержка видео : 0
Размер потока : 309551616
Размер потока : 295 Мбайт (20%)
Размер потока : 295 Мбайт
Размер потока : 295 Мбайт
Размер потока : 295 Мбайт
Размер потока : 295,2 Мбайт
Размер потока : 295 Мбайт (20%)
Пропорции потока : 0.19805
Выравнивание : Split
Выравнивание : Разделение по промежуткам
Продолжительность промежутка : 1.00
Продолжительность промежутка : 40
Продолжительность промежутка : 40 мс. (1,00 видеокадр)
Время предзагрузки промежутка : 500
Время предзагрузки промежутка : 500 мс.
bsid : 8
dialnorm : -27
dialnorm/String : -27 dB
compr : -0.28
compr/String : -0.28 dB
acmod : 7
lfeon : 1
dialnorm_Average : -27
dialnorm_Average/String : -27 dB
dialnorm_Minimum : -27
dialnorm_Minimum/String : -27 dB
dialnorm_Maximum : -27
dialnorm_Maximum/String : -27 dB
dialnorm_Count : 389
compr_Average : 0.33
compr_Average/String : 0.33 dB
compr_Minimum : -0.28
compr_Minimum/String : -0.28 dB
compr_Maximum : 1.94
compr_Maximum/String : 1.94 dB
compr_Count : 389
dynrng_Average : -0.35
dynrng_Average/String : -0.35 dB
dynrng_Minimum : -1.48
dynrng_Minimum/String : -1.48 dB
dynrng_Maximum : 0.00
dynrng_Maximum/String : 0.00 dB
dynrng_Count : 389





piratbit.org



Скачать Крысиные бега через торрент http://trueimages.ru/img/bd/ec/4f107825.jpg Скачать фильм Крысиные бега через торрент бесплантно в хорошем качестве Описание:Владелец крупнейшего казино Лас-Вегаса решает, что его самым богатым клиентам нужно нечто особенное. Он готовит для них ... 10 10 10
Info! Золотая раздача, скачанное не засчитывается.
Торрент: Зарегистрирован [2013-11-16 05:39] · скачан: 128 раз
Статус: √ проверено
Размер: 1.46 GB
Как cкачать? Как скачать Крысиные бега через торрент | UTorrent

% Раздел Тема Автор DL S | L
Фильмы (WEB-DL 720p, 1080p) [ 13.16 GB ] Крысиные бега / Rat Race [2001 WEB-DL 1080p] DUB + 2xMVO + DVO + 4xAVO - KORSAR kisa1980 Скачать
1 | 0
Фильмы 2001-2005 [ 2.05 GB ] Крысиные бега / Rat Race [2001 ... DVDRip] kycher1972 Скачать
1 | 0


Последний раз редактировалось: GEKADOL (2013-11-16 05:49), всего редактировалось 1 раз

28-11-2019 20:33  

Отключить всю рекламу на сайте

16-11-2013 05:48 Крысиные бега Скачать торрент  

Пересмотрел ухахатался опять)) Роуэн Эткинсон это что то))) Да и вообще народец подсобрался)piratbit.org



16-11-2013 06:25 Крысиные бега Скачать торрент  

Машина улыбнула, когда пулю обогонялиpiratbit.org



    Дорогой пользователь! Огромная просьба, поблагодарите релизера, оцените раздачу и оставьте свои комментарий, если Вы скачали Крысиные бега через торрент бесплатно! Внесите свою лепту в развитие PiratBit!
    Комментировать посты могут только пользователи прошедшие не сложную регистрацию
    Показать сообщения:    

    Крысиные бега через торрент
    Скачать бесплатно Крысиные бега
    Крысиные бега скачать торрент
    Крысиные бега смотреть онлайн
    Cкачать фильм Крысиные бега бесплатно
    Крысиные бега скачать торрент в хорошем качестве
    Крысиные бега смотреть онлайн бесплатно в хорошем качестве


    Вы не можете начинать темы
    Вы не можете отвечать на сообщения
    Вы не можете редактировать свои сообщения
    Вы не можете удалять свои сообщения
    Вы не можете голосовать в опросах
    Вы не можете прикреплять файлы к сообщениям
    Вы можете скачивать файлы