Достать ножи: Стеклянная луковица

MVO

Добыча

Дубляж

Уэнсдэй

1 сезон

Тор

Дубляж

13 клиническая

1 сезон

Жестокая ночь

MVO

Одни из нас

1 сезон

Deluxe

pack

Рекомендуем

30

Пиратка

ВАЖНО

ВАЖНО

Ghostwire

Пиратка

jed

RePack

nioh2

RePack

RDR2

RePack

NEED FOR SPEED™ PAYBACK

RePack

скачать торрент

Кинопоиск HD

Острые козырьки 6 сезон

6 сезон

FAR CRY 6

RePack

скачать торрент

Лицензия

скачать торрент

MVO

1

1 сезон

скачать торрент

1 сезон

скачать торрент

Лицензия

  

Шанхайский полдень / Shanghai Noon + Шанхайские рыцари / Shanghai Knights (Том Дей, Дэвид Добкин) [2000, 2003 г., Комедия, приключения BD-Remux, Профессиональный многоголосый(закадровый)]

Шанхайский полдень через торрент piratbit.org

Размер: 40.92 GB | Добавлен: 9 лет 2 мес. назад | Торрент скачан:3 раза
Смотреть онлайн | Скачать | Поддержите нас   

18-11-2013 12:09 Шанхайский полдень Скачать торрент  

Шанхайский полдень + Шанхайские рыцари (Коллекция)
Шанхайский полдень / Shanghai Noon
Год выпуска: 2000
Страна: США, Гонконг
Жанр: Боевик, комедия, приключения, вестерн
Продолжительность: 01:50:16
Перевод: Профессиональный многоголосый (закадровый)
Субтитры: Русские, английские

Режиссер: Том Дей
Продюссер: Гари Барбер, Роджер Бернбаум, Джонатан Гликман
Сценарий: Майлз Миллар, Альфред Гоф

Бюджет: $55 000 000
Премьера в мире: 19 мая 2000



В ролях: Джеки Чан, Оуэн Уилсон, Люси Лью, Брэндон Мэрилл, Роджер Йуан, Ксандер Беркли, Жунгуан Ю, Я Хи Куи, Эрик Чен, Джейсон Коннери

Описание: Когда прекрасную китайскую принцессу похищают, Император отправляет на Дикий Запад троих самых верных и искусных телохранителей. Чон Ванг, естественно…не оказывается в их числе. Но тайными путями ему все-таки удается попасть в воинственную делегацию и оказаться в самом сердце Америки и непредсказуемых событий.

Вместе со случайным напарником китайский телохранитель попадает во всевозможные переделки; между делом, он помогает племени Сиу, выкуривает трубку мира, и тут же оказывается на тропе войны, по которой пробегают его многочисленные враги.

Качество: BD-Remux
Формат: M2TS
Видео кодек: AVC
Аудио кодек: AC3, DTS
Видео: 1920x1080, 23.976 fps AVC 25300 kbps avg
Аудио#1: Russian 48 kHz, AC3 3/2, 448 kbps avg (многоголосый, закадровый)
Аудио#2: English 48 kHz, DTS-HD 3/2, 2073 kbps avg (оригинал)
Аудио#3: English 48 kHz, AC3 3/2, 224 kbps avg (комментарий режиссера)




Общее
Идентификатор : 1 (0x1)
Полное имя : D:На дискеШанхайский полдень ~ Shanghai Noon (2000) BD-Remux.m2ts
Формат : BDAV
Формат/Информация : Blu-ray Video
Размер файла : 22,5 Гбайт
Продолжительность : 1 ч. 50 м.
Режим общего битрейта : Переменный
Общий поток : 29,2 Мбит/сек
Максимальный общий битрейт : 35,5 Мбит/сек

Видео
Идентификатор : 4113 (0x1011)
Идентификатор меню : 1 (0x1)
Формат : AVC
Формат/Информация : Advanced Video Codec
Профиль формата : High@L4.1
Параметр CABAC формата : Да
Параметр ReFrames формата : 4 кадра
Параметр GOP формата : M=3, N=24
Идентификатор кодека : 27
Продолжительность : 1 ч. 50 м.
Вид битрейта : Переменный
Битрейт : 25,3 Мбит/сек
Максимальный битрейт : 35,0 Мбит/сек
Ширина : 1920 пикселей
Высота : 1080 пикселей
Соотношение сторон : 16:9
Частота кадров : 23,976 кадра/сек
Стандарт вещания : NTSC
Цветовое пространство : YUV
Субдискретизация насыщенности : 4:2:0
Битовая глубина : 8 бит
Тип развёртки : Прогрессивная
Бит/(Пиксели*Кадры) : 0.509
Размер потока : 19,5 Гбайт (87%)
Основные цвета : BT.709
Характеристики трансфера : BT.709
Коэффициенты матрицы : BT.709

Аудио #1
Идентификатор : 4352 (0x1100)
Идентификатор меню : 1 (0x1)
Формат : AC-3
Формат/Информация : Audio Coding 3
Расширение режима : CM (complete main)
Параметр Endianness формата : Big
Идентификатор кодека : 129
Продолжительность : 1 ч. 50 м.
Вид битрейта : Постоянный
Битрейт : 448 Кбит/сек
Каналы : 6 каналов
Расположение каналов : Front: L C R, Side: L R, LFE
Частота : 48,0 КГц
Битовая глубина : 16 бит
Метод сжатия : С потерями
Размер потока : 353 Мбайт (2%)
Язык : Russian

Аудио #2
Идентификатор : 4353 (0x1101)
Идентификатор меню : 1 (0x1)
Формат : DTS
Формат/Информация : Digital Theater Systems
Профиль формата : HRA / Core
Режим : 16
Параметр Endianness формата : Big
Режим смешивания : Stream extension
Идентификатор кодека : 134
Продолжительность : 1 ч. 50 м.
Вид битрейта : Постоянный
Битрейт : 2046 Кбит/сек / 1509 Кбит/сек
Каналы : 6 каналов
Расположение каналов : Front: L C R, Side: L R, LFE
Частота : 48,0 КГц
Битовая глубина : 16 бит
Метод сжатия : С потерями
Размер потока : 1,58 Гбайт (7%)
Язык : English

Аудио #3
Идентификатор : 4354 (0x1102)
Идентификатор меню : 1 (0x1)
Формат : AC-3
Формат/Информация : Audio Coding 3
Расширение режима : CM (complete main)
Параметр Endianness формата : Big
Идентификатор кодека : 129
Продолжительность : 1 ч. 50 м.
Вид битрейта : Постоянный
Битрейт : 224 Кбит/сек
Каналы : 2 канала
Расположение каналов : Front: L R
Частота : 48,0 КГц
Битовая глубина : 16 бит
Метод сжатия : С потерями
Размер потока : 177 Мбайт (1%)
Язык : English

Текст #1
Идентификатор : 4608 (0x1200)
Идентификатор меню : 1 (0x1)
Формат : PGS
Идентификатор кодека : 144
Язык : English

Текст #2
Идентификатор : 4609 (0x1201)
Идентификатор меню : 1 (0x1)
Формат : PGS
Идентификатор кодека : 144
Язык : Russian

Шанхайские рыцари / Shanghai Knights
Год выпуска: 2003
Страна: США, Гонконг
Жанр: Боевик, комедия, приключения, вестерн
Продолжительность: 01:50:16
Перевод: Профессиональный многоголосый (закадровый)
Субтитры: Русские, английские

Режиссер: Дэвид Добкин
Продюссер: Гари Барбер, Роджер Бернбаум, Джонатан Гликман
Сценарий: Альфред Гоф, Майлз Миллар

Бюджет: $50 000 000
Премьера в мире: 30 января 2003



В ролях: Джеки Чан, Оуэн Уилсон, Фэнн Вонг, Аарон Джонсон, Эйдан Джиллен, Том Фишер, Донни Ен, Оливер Коттон, Элисон Кинг, Константин Грегори

Описание: После приручения Дикого Запада в комедии «Шанхайский полдень», Чон Ванг и Рой О`Баннон — опять в седле, но на сей раз совсем в другом месте — они оказались в цивилизованном Лондоне в продолжении этого фильма, «Шанхайских Рыцарях».

Когда китайский предатель убивает отца Чона и убегает в Англию, Чон и Рой отправляются за ним в Лондон с планами мести. Сестра Чона, Лин, хочет того же, и раскрывает всемирный заговор против королевской семьи, но почти никто не верит ей.

С помощью любезного инспектора Скотланд Ярда и 10-летнего уличного мальчишки, акробатический Чон дает Викторианской Англии хороший пинок, поскольку он одновременно пытается мстить за смерть своего отца и держать склонного к флирту Роя подальше от сестры.

Качество: BD-Remux
Формат: MKV
Видео кодек: VC-1
Аудио кодек: AC3, DTS-HD
Видео: 1920x1080, ~20 Мбит/сек, 23.976 кадр/сек
Аудио#1: AC3, 448 Кбит/сек, 6 каналов, 48.0 КГц - многоголосый (лицензия)
Аудио#2: AC3, 384 Кбит/сек, 6 каналов, 48.0 КГц - двухголосый
Аудио#3: AC3, 192 Кбит/сек, 2 канала, 48.0 КГц - дубляж (компания 'Невафильм', был записан с телеканала "Россия")
Аудио#4: DTS-HD MA 5.1, ~2024 Кбит/сек (DTS Core: 5.1 / 48 kHz / 1509 Кбит/сек / 24-бит) - оригинал (английский)





Общее
Уникальный идентификатор : 206689552595178416638219329615361716859 (0x9B7EF5B8F596E9E2BB927D119D93B27B)
Полное имя : D:На дискеШанхайский полдень + Шанхайские рыцариBD-RemuxШанхайские рыцари ~ Shanghai Knights (2003) BD-Remux.mkv
Формат : Matroska
Версия формата : Version 2
Размер файла : 18,4 Гбайт
Продолжительность : 1 ч. 54 м.
Режим общего битрейта : Переменный
Общий поток : 23,1 Мбит/сек
Дата кодирования : UTC 2010-09-27 06:41:27
Программа кодирования : mkvmerge v2.9.8 ('C'est le bon') built on Aug 13 2009 12:49:06
Библиотека кодирования : libebml v0.7.7 + libmatroska v0.8.1

Видео
Идентификатор : 1
Формат : VC-1
Профиль формата : Advanced@L3
Идентификатор кодека : V_MS/VFW/FOURCC / WVC1
Идентификатор кодека/Подсказка : Microsoft
Продолжительность : 1 ч. 54 м.
Ширина : 1920 пикселей
Высота : 1080 пикселей
Соотношение сторон : 16:9
Режим частоты кадров : Постоянный
Частота кадров : 23,976 кадра/сек
Субдискретизация насыщенности : 4:2:0
Битовая глубина : 8 бит
Тип развёртки : Прогрессивная
Метод сжатия : С потерями
Язык : English
Default : Да
Forced : Нет

Аудио #1
Идентификатор : 2
Формат : AC-3
Формат/Информация : Audio Coding 3
Расширение режима : CM (complete main)
Параметр Endianness формата : Big
Идентификатор кодека : A_AC3
Продолжительность : 1 ч. 54 м.
Вид битрейта : Постоянный
Битрейт : 448 Кбит/сек
Каналы : 6 каналов
Расположение каналов : Front: L C R, Side: L R, LFE
Частота : 48,0 КГц
Битовая глубина : 16 бит
Метод сжатия : С потерями
Размер потока : 366 Мбайт (2%)
Заголовок : Многоголосый
Язык : Russian
Default : Да
Forced : Нет

Аудио #2
Идентификатор : 3
Формат : AC-3
Формат/Информация : Audio Coding 3
Расширение режима : CM (complete main)
Параметр Endianness формата : Big
Идентификатор кодека : A_AC3
Продолжительность : 1 ч. 54 м.
Вид битрейта : Постоянный
Битрейт : 384 Кбит/сек
Каналы : 6 каналов
Расположение каналов : Front: L C R, Side: L R, LFE
Частота : 48,0 КГц
Битовая глубина : 16 бит
Метод сжатия : С потерями
Размер потока : 314 Мбайт (2%)
Заголовок : Двухголосый
Язык : Russian
Default : Нет
Forced : Нет

Аудио #3
Идентификатор : 4
Формат : AC-3
Формат/Информация : Audio Coding 3
Расширение режима : CM (complete main)
Параметр Endianness формата : Big
Идентификатор кодека : A_AC3
Продолжительность : 1 ч. 54 м.
Вид битрейта : Постоянный
Битрейт : 192 Кбит/сек
Каналы : 2 канала
Расположение каналов : Front: L R
Частота : 48,0 КГц
Битовая глубина : 16 бит
Метод сжатия : С потерями
Размер потока : 157 Мбайт (1%)
Заголовок : Дубляж
Язык : Russian
Default : Нет
Forced : Нет

Аудио #4
Идентификатор : 5
Формат : DTS
Формат/Информация : Digital Theater Systems
Профиль формата : MA / Core
Режим : 16
Параметр Endianness формата : Big
Идентификатор кодека : A_DTS
Продолжительность : 1 ч. 54 м.
Вид битрейта : Переменный
Битрейт : Неизвестно / 1509 Кбит/сек
Каналы : 6 каналов
Расположение каналов : Front: L C R, Side: L R, LFE
Частота : 48,0 КГц
Битовая глубина : 16 бит
Метод сжатия : Без потерь / Lossy
Заголовок : Оригинал
Язык : English
Default : Нет
Forced : Нет

Текст #1
Идентификатор : 6
Формат : UTF-8
Идентификатор кодека : S_TEXT/UTF8
Идентификатор кодека/Информация : UTF-8 Plain Text
Язык : Russian
Default : Да
Forced : Нет

Текст #2
Идентификатор : 7
Формат : UTF-8
Идентификатор кодека : S_TEXT/UTF8
Идентификатор кодека/Информация : UTF-8 Plain Text
Язык : English
Default : Нет
Forced : Нет




Скачать Шанхайский полдень через торрент https://pic1.kartinco.top/images/61/b1zjn.jpg Скачать, смотреть онлайн Шанхайский полдень бесплантно в хорошем качестве Описание: Когда прекрасную китайскую принцессу похищают, Император отправляет на Дикий Запад троих самых верных и искусных телохранителей. ... 10 10 6
Info! Золотая раздача, скачанное не засчитывается.
Торрент: Зарегистрирован [2013-11-18 12:09] · скачан: 3 раз
Статус: √ проверено
Размер: 40.92 GB
Как cкачать? Как скачать Шанхайский полдень через торрент | UTorrent

28-11-2019 20:33  


Отключить вcю реклaмy на сайте, в т.ч. и в плеере онлайн просмотра!

    Дорогой пользователь! Огромная просьба, поблагодарите релизера, оцените раздачу и оставьте свои комментарий, если Вы скачали Шанхайский полдень через торрент бесплатно!!
    Комментировать посты могут только пользователи прошедшие не сложную регистрацию
    Показать сообщения:    


    Шанхайский полдень через торрент
    Скачать бесплатно Шанхайский полдень
    Шанхайский полдень скачать торрент
    Шанхайский полдень смотреть онлайн
    Cкачать фильм Шанхайский полдень бесплатно
    Шанхайский полдень скачать торрент в хорошем качестве
    Шанхайский полдень смотреть онлайн бесплатно в хорошем качестве
    Вы не можете начинать темы
    Вы не можете отвечать на сообщения
    Вы не можете редактировать свои сообщения
    Вы не можете удалять свои сообщения
    Вы не можете голосовать в опросах
    Вы не можете прикреплять файлы к сообщениям
    Вы можете скачивать файлы
    Шанхайский полдень / Shanghai Noon + Шанхайские рыцари / Shanghai Knights [2000, 2003 г., Комедия, приключения BD-Remux, Профессиональный многоголосый] смотреть онлайн, скачать торрент picoco.icu