Доктор Стрэндж

Лицензия

Добыча

Дубляж

Уэнсдэй

1 сезон

Тор

Дубляж

В эфире

Дубляж

Там, где раки поют

MVO

Властелин колец

1 сезон

Deluxe

pack

Рекомендуем

30

Пиратка

ВАЖНО

ВАЖНО

Ghostwire

Пиратка

jed

RePack

nioh2

RePack

RDR2

RePack

NEED FOR SPEED™ PAYBACK

RePack

скачать торрент

Кинопоиск HD

Острые козырьки 6 сезон

6 сезон

FAR CRY 6

RePack

скачать торрент

Лицензия

скачать торрент

MVO

1

1 сезон

скачать торрент

1 сезон

скачать торрент

Лицензия

  

Очень голодные игры / The Starving Games (Джейсон Фридберг, Аарон Зельцер) [2013, Комедия, BDRip 1080p] VO

Очень голодные игры через торрент piratbit.org

Размер: 6.81 GB | Добавлен: 9 лет назад | Торрент скачан:230 раз
Смотреть онлайн | Скачать   

22-11-2013 20:06 Очень голодные игры Скачать торрент  

Очень голодные игры / The Starving Games
Год выпуска: 2013
Страна: США
Жанр: Комедия
Продолжительность: 01:22:26
Перевод: Любительский одноголосый (Andi)
Субтитры: Вшитые отключаемые
Язык субтитров: Русский, Английский (SDH)
Режиссер: Джейсон Фридберг Аарон Зельцер
Продюссер: Питер Сафран, Пэтти Лонг, Хэл Олофссон
В ролях: Майра Уолш, Брэнт Догерти, Александрия Деберри, Коди Кристиан, Ник Гомес, Дидрих Бадер, Лорен Боулз, Эрик Борк, Джозеф Авиль, Элис Форд
Дата мировой премьеры: 31 октября 2013
Дата российской премьеры: 7 ноября 2013, «Каскад», «Премиум Фильм»
Дата выхода DVD / Blu-Ray релиза: 28 ноября 2013, «CP Дистрибуция»


Описание:
Храбрая девушка по имени Кантмисс Эвершот вызывается добровольцем для участия в «Играх за хавчик». Однако она даже предположить не могла, чем всё это закончится и кто будет сражаться вместе с ней.
Качество: BDRip 1080p [SONiDO]
Формат: MKV
Видео кодек: AVC/H.264
Аудио кодек: AC3-DTS
Видео:~ 9899 Кбит/сек, 1920 x 1040 (1.846) at 23.976 fps : 0.324 bit/pixel
Аудио #1: AC3 448 Кбит/сек (6ch), 48,0 КГц, 16 бит [Русский, VO Andi]
Аудио #2: DTS 1509 Кбит/сек (6ch), 48,0 КГц, 24 бит [Английский]
Дополнительно: Сохранены оригинальные чаптеры как на Blu-ray

Код:

Уникальный идентификатор                 : 238840915051879662413006789868515542998 (0xB3AF164739EB77818B7062DCFA04C7D6)
Полное имя                               : H:BDRip'ыОчень голодные игры  The Starving Games 2013 BDRip 1080pOchen.golodnyye.igry.2013.L1.BDRip.1080p.NNM-CLUB.mkv
Формат                                   : Matroska
Версия формата                           : Version 2
Размер файла                             : 6,81 Гбайт
Продолжительность                        : 1 ч. 22 м.
Общий поток                              : 11,9 Мбит/сек
Название фильма                          : The.Starving.Games.2013.1080p.BluRay.x264-SONiDO
Дата кодирования                         : UTC 2013-11-19 21:51:29
Программа кодирования                    : mkvmerge v2.9.9 ('Tutu') built on Nov 25 2009 21:13:32
Библиотека кодирования                   : libebml v0.7.9 + libmatroska v0.8.1

Видео
Идентификатор                            : 1
Формат                                   : AVC
Формат/Информация                        : Advanced Video Codec
Профиль формата                          : High@L4.1
Параметр CABAC формата                   : Да
Параметр ReFrames формата                : 4 кадра
Идентификатор кодека                     : V_MPEG4/ISO/AVC
Продолжительность                        : 1 ч. 22 м.
Битрейт                                  : 9899 Кбит/сек
Ширина                                   : 1920 пикселей
Высота                                   : 1040 пикселей
Соотношение сторон                       : 1,85:1
Режим частоты кадров                     : Постоянный
Частота кадров                           : 23,976 кадра/сек
Цветовое пространство                    : YUV
Субдискретизация насыщенности            : 4:2:0
Битовая глубина                          : 8 бит
Тип развёртки                            : Прогрессивная
Бит/(Пиксели*Кадры)                      : 0.207
Размер потока                            : 5,55 Гбайт (81%)
Заголовок                                : -=Release for NNM-CLUB.RU=-
Библиотека кодирования                   : x264 core 138 r2358 9e941d1
Настройки программы                      : cabac=1 / ref=4 / deblock=1:0:0 / analyse=0x3:0x133 / me=umh / subme=7 / psy=1 / psy_rd=1.00:0.00 / mixed_ref=1 / me_range=16 / chroma_me=1 / trellis=1 / 8x8dct=1 / cqm=0 / deadzone=21,11 / fast_pskip=0 / chroma_qp_offset=-2 / threads=12 / lookahead_threads=2 / sliced_threads=0 / nr=0 / decimate=1 / interlaced=0 / bluray_compat=0 / constrained_intra=0 / bframes=3 / b_pyramid=2 / b_adapt=2 / b_bias=0 / direct=3 / weightb=1 / open_gop=0 / weightp=2 / keyint=250 / keyint_min=23 / scenecut=40 / intra_refresh=0 / rc_lookahead=50 / rc=2pass / mbtree=1 / bitrate=9899 / ratetol=1.0 / qcomp=0.60 / qpmin=0 / qpmax=69 / qpstep=4 / cplxblur=20.0 / qblur=0.5 / ip_ratio=1.40 / aq=1:1.00
Язык                                     : English
Default                                  : Нет
Forced                                   : Нет

Аудио #1
Идентификатор                            : 2
Формат                                   : AC-3
Формат/Информация                        : Audio Coding 3
Расширение режима                        : CM (complete main)
Параметр Endianness формата              : Big
Идентификатор кодека                     : A_AC3
Продолжительность                        : 1 ч. 22 м.
Вид битрейта                             : Постоянный
Битрейт                                  : 448 Кбит/сек
Каналы                                   : 6 каналов
Расположение каналов                     : Front: L C R, Side: L R, LFE
Частота                                  : 48,0 КГц
Битовая глубина                          : 16 бит
Метод сжатия                             : С потерями
Размер потока                            : 264 Мбайт (4%)
Заголовок                                : AC3.448.Kbps (6ch) Russian (VO Andi)
Язык                                     : Russian
Default                                  : Да
Forced                                   : Нет

Аудио #2
Идентификатор                            : 3
Формат                                   : DTS
Формат/Информация                        : Digital Theater Systems
Режим                                    : 16
Параметр Endianness формата              : Big
Идентификатор кодека                     : A_DTS
Продолжительность                        : 1 ч. 22 м.
Вид битрейта                             : Постоянный
Битрейт                                  : 1509 Кбит/сек
Каналы                                   : 6 каналов
Расположение каналов                     : Front: L C R, Side: L R, LFE
Частота                                  : 48,0 КГц
Битовая глубина                          : 24 бит
Метод сжатия                             : С потерями
Задержка видео                           : 11 мс.
Размер потока                            : 888 Мбайт (13%)
Заголовок                                : DTS.1509.Kbps (6ch) English
Язык                                     : English
Default                                  : Нет
Forced                                   : Нет

Текст #1
Идентификатор                            : 4
Формат                                   : UTF-8
Идентификатор кодека                     : S_TEXT/UTF8
Идентификатор кодека/Информация          : UTF-8 Plain Text
Заголовок                                : Russian (Full)
Язык                                     : Russian
Default                                  : Нет
Forced                                   : Нет

Текст #2
Идентификатор                            : 5
Формат                                   : UTF-8
Идентификатор кодека                     : S_TEXT/UTF8
Идентификатор кодека/Информация          : UTF-8 Plain Text
Заголовок                                : English (SDH)
Язык                                     : English
Default                                  : Нет
Forced                                   : Нет

Меню
00:00:00.000                             : en:00:00:00.000
00:15:41.816                             : en:00:15:41.816
00:33:35.347                             : en:00:33:35.347
00:50:36.867                             : en:00:50:36.867
01:03:29.848                             : en:01:03:29.848
01:15:14.135                             : en:01:15:14.135




Скачать Очень голодные игры через торрент https://pic1.kartinco.top/images/61/cz76m.jpg Скачать, смотреть онлайн Очень голодные игры бесплантно в хорошем качестве Описание: Храбрая девушка по имени Кантмисс Эвершот вызывается добровольцем для участия в «Играх за хавчик». Однако она даже предположить ... 9 10 20
Info! Золотая раздача, скачанное не засчитывается.
Торрент: Зарегистрирован [2013-11-22 20:06] · скачан: 230 раз
Статус: T временная
Размер: 6.81 GB
Как cкачать? Как скачать Очень голодные игры через торрент | UTorrent

28-11-2019 20:33  


Отключить вcю реклaмy на сайте, в т.ч. и в плеере онлайн просмотра!

22-11-2013 20:31 Очень голодные игры Скачать торрент  

Это что такое? :rofle:



22-11-2013 22:05 Очень голодные игры Скачать торрент  

классный фильм



25-11-2013 03:53 Очень голодные игры Скачать торрент  

дикое убожество... no



    Дорогой пользователь! Огромная просьба, поблагодарите релизера, оцените раздачу и оставьте свои комментарий, если Вы скачали Очень голодные игры через торрент бесплатно!!
    Комментировать посты могут только пользователи прошедшие не сложную регистрацию
    Показать сообщения:    


    Очень голодные игры через торрент
    Скачать бесплатно Очень голодные игры
    Очень голодные игры скачать торрент
    Очень голодные игры смотреть онлайн
    Cкачать фильм Очень голодные игры бесплатно
    Очень голодные игры скачать торрент в хорошем качестве
    Очень голодные игры смотреть онлайн бесплатно в хорошем качестве
    Вы не можете начинать темы
    Вы не можете отвечать на сообщения
    Вы не можете редактировать свои сообщения
    Вы не можете удалять свои сообщения
    Вы не можете голосовать в опросах
    Вы не можете прикреплять файлы к сообщениям
    Вы можете скачивать файлы
    Очень голодные игры / The Starving Games [2013, Комедия, BDRip 1080p] VO смотреть онлайн, скачать торрент picoco.icu