новый адрес
Мега распродажа FORZA HORIZON 4 ULTIMATE+ВСЕ DLC+ОНЛАЙН всего за 499р. 349 руб. (супер цена). Внимание количество ограничено!!!

iTunes

1+1

iTunes

мы

iTunes

1

iTunes

Чернобыль

iTunes

Ральф против интернета

Лицензия

ПШазам

Лицензия

Оно 2

Лицензия

30
pack

ВАЖНО

!!Акция!!

Alien_RageХит недели

RePack

Resident Evil 21

ИГРА 18+

pack

RePack

Metro:Exodus

!!Акция!!

Alien_Rage

RePack

fifa19

RePack

Assassins Creed: Odyssey

RePack

NEED FOR SPEED™ PAYBACK

3 сезон

9 сезон

Бесстыжие 9 сезон

Все сериалы

все сериалы на PB.wtf

RePack

FAR CRY 5
Ребята, катастрофически не хватает 1900р. для оплаты серверов за Октябрь (всвязи с блокировками трафик упал в 3 раза), 1-2р., выручайте.
  

Хищники океанов 3D / Ocean Predators 3D [ 2013 , США , документальный , BDRip1080](полное дублирование)Half OverUnder piratbit.org

Хищники океанов 3D через торрент piratbit.org

Размер: 7.8 GB | Добавлен: 5 лет 11 мес. назад | Торрент скачан:1047 раз
Скачать  

23-11-2013 01:40 Хищники океанов 3D Скачать торрент  

Хищники океанов 3D (видео) / Ocean Predators 3D
Год выпуска: 2013
Страна: США
Жанр: документальный
Продолжительность: 00:57:19
Перевод: Профессиональный (полное дублирование)
Субтитры: Нет

Режиссеры:Benjamin Eicher, Timo Joh. Mayer

Описание:Присоединяйтесь к захватывающему погружению в глубины океана в поисках самых опасных хищников! Вас ждет немало поразительных открытий об этих завораживающих и умелых охотниках. Острые, как лезвия, зубы и молниеносная реакция - вот главные секреты выживания в безжалостной среде. Долой мифы и легенды - готовы ли Вы узнать настоящую правду об акулах, барракудах и муренах?
Уникальные документальные материалы, снятые с помощью 3D - стереоскопа покажут все, что вы хотели знать о настоящих Королях Океана.

Качество: BDRip1080
Формат: MKV
Видео кодек: AVC
Аудио кодек: AC3
Видео: 18,2 Мбит/сек, 1920*1080 (16:9), в 23,976 кадра/сек, AVC
Аудио №1: русский,448 Кбит/сек, 48,0 КГц, 16 бит, 2 канала, AC-3
Аудио №2: английский, 448 Кбит/сек, 48,0 КГц, 16 бит, 2 канала, AC-3

Формат 3D:Half OverUnder / Вертикальная анаморфная стереопара
Порядок ракурсов:левый ракурс первый

Общее
Кол-во : 284
Кол-во потоков такого типа : 1
Тип потока : General
Тип потока : Общее
Идентификатор типа потока : 0
Inform : Matroska: 7,80 Гбайт, 57 м.
Уникальный идентификатор : 241546354159033685694283651104474701663
Уникальный идентификатор : 241546354159033685694283651104474701663 (0xB5B822B984040C4EAC32F8700E949F5F)
Кол-во видеопотоков : 1
Кол-во аудиопотоков : 2
Кол-во потоков меню : 1
Video_Format_List : AVC
Video_Format_WithHint_List : AVC
Видеокодеки : AVC
Video_Language_List : German
Audio_Format_List : AC-3 / AC-3
Audio_Format_WithHint_List : AC-3 / AC-3
Аудиокодеки : AC3 / AC3
Audio_Language_List : Russian / English
Полное имя : H:ТОРРЕНТЫХищники океанов.mkv
Имя папки : H:ТОРРЕНТЫ
Имя файла : Хищники океанов
Расширение : mkv
Формат : Matroska
Формат : Matroska
Формат/Ссылка : http://packs.matroska.org/
Формат/Используется в : mkv mk3d mka mks
Коммерческое название : Matroska
Версия формата : Version 2
Кодек : Matroska
Кодек : Matroska
Кодек/Ссылка : http://packs.matroska.org/
Кодек/Используется в : mkv mk3d mka mks
Размер файла : 8378094234
Размер файла : 7,80 Гбайт
Размер файла : 8 Гбайт
Размер файла : 7,8 Гбайт
Размер файла : 7,80 Гбайт
Размер файла : 7,803 Гбайт
Продолжительность : 3439478
Продолжительность : 57 м.
Продолжительность : 57 м. 19 с. 478 мс.
Продолжительность : 57 м.
Продолжительность : 00:57:19.478
Общий поток : 19486897
Общий поток : 19,5 Мбит/сек
Размер потока : 166716956
Размер потока : 159 Мбайт (2%)
Размер потока : 159 Мбайт
Размер потока : 159 Мбайт
Размер потока : 159 Мбайт
Размер потока : 159,0 Мбайт
Размер потока : 159 Мбайт (2%)
Пропорции потока : 0.01990
Заголовок : Хищники океанов / Ocean Predators (2013) 3D
Название фильма : Хищники океанов / Ocean Predators (2013) 3D
Дата кодирования : UTC 2013-11-17 08:45:27
Дата файла : UTC 2013-11-22 12:05:44.794
Дата файла (местная) : 2013-11-22 19:05:44.794
Дата изменения файла : UTC 2013-11-23 00:31:39.286
Дата изменения файла (местная) : 2013-11-23 07:31:39.286
Программа кодирования : mkvmerge v5.8.0 ('No Sleep / Pillow') built on Sep 2 2012 15:37:04
Библиотека кодирования : libebml v1.2.3 + libmatroska v1.3.0
Библиотека кодирования : libebml v1.2.3 + libmatroska v1.3.0

Видео
Кол-во : 263
Кол-во потоков такого типа : 1
Тип потока : Video
Тип потока : Видео
Идентификатор типа потока : 0
StreamOrder : 0
Inform : German, 18,2 Мбит/сек, 1920*1080 (16:9), в 23,976 кадра/сек, AVC (High@L4.1) (CABAC / 4 Ref Frames)
Идентификатор : 1
Идентификатор : 1
Уникальный идентификатор : 1
Формат : AVC
Формат/Информация : Advanced Video Codec
Формат/Ссылка : http://developers.videolan.org/x264.html
Коммерческое название : AVC
Профиль формата : High@L4.1
Настройки формата : CABAC / 4 Ref Frames
Параметр CABAC формата : Yes
Параметр CABAC формата : Да
Параметр ReFrames формата : 4
Параметр ReFrames формата : 4 кадра
Интернет-тип носителя : video/H264
Идентификатор кодека : V_MPEG4/ISO/AVC
Идентификатор кодека/Ссылка : http://ffdshow-tryout.sourceforge.net/
Кодек : V_MPEG4/ISO/AVC
Кодек : AVC
Кодек/Семейство : AVC
Кодек/Информация : Advanced Video Codec
Кодек/Ссылка : http://ffdshow-tryout.sourceforge.net/
Профиль кодека : High@L4.1
Настройки кодека : CABAC / 4 Ref Frames
Параметр CABAC кодека : Yes
Codec_Settings_RefFrames : 4
Продолжительность : 3439481
Продолжительность : 57 м.
Продолжительность : 57 м. 19 с. 481 мс.
Продолжительность : 57 м.
Продолжительность : 00:57:19.481
Битрейт : 18203108
Битрейт : 18,2 Мбит/сек
Ширина : 1920
Ширина : 1920 пикселей
Высота : 1080
Высота : 1080 пикселей
Пропорции пикселя : 1.000
Соотношение сторон : 1.778
Соотношение сторон : 16:9
Режим частоты кадров : CFR
Режим частоты кадров : Постоянный
Частота кадров : 23.976
Частота кадров : 23,976 кадра/сек
Счётчик кадров : 82465
Разрешение : 8
Разрешение : 8 бит
Колориметрия : 4:2:0
Цветовое пространство : YUV
Субдискретизация насыщенности : 4:2:0
Битовая глубина : 8
Битовая глубина : 8 бит
Тип развёртки : Progressive
Тип развёртки : Прогрессивная
Переплетение : PPF
Переплетение : Прогрессивная
Бит/(Пиксели*Кадры) : 0.366
Задержка : 0
Задержка : 00:00:00.000
Задержка в оригинале : Container
Задержка в оригинале : Контейнер
Размер потока : 7826155742
Размер потока : 7,29 Гбайт (93%)
Размер потока : 7 Гбайт
Размер потока : 7,3 Гбайт
Размер потока : 7,29 Гбайт
Размер потока : 7,289 Гбайт
Размер потока : 7,29 Гбайт (93%)
Пропорции потока : 0.93412
Заголовок : BDRip by Ash61
Библиотека кодирования : x264 - core 129 r2245 bc13772
Библиотека кодирования : x264 core 129 r2245 bc13772
Библиотека кодирования/Имя : x264
Библиотека кодирования/Version : core 129 r2245 bc13772
Настройки программы : cabac=1 / ref=4 / deblock=1:-3:-3 / analyse=0x3:0x113 / me=umh / subme=10 / psy=1 / psy_rd=1.00:0.15 / mixed_ref=1 / me_range=32 / chroma_me=1 / trellis=2 / 8x8dct=1 / cqm=0 / deadzone=21,11 / fast_pskip=1 / chroma_qp_offset=-3 / threads=12 / lookahead_threads=2 / sliced_threads=0 / nr=0 / decimate=1 / interlaced=0 / bluray_compat=0 / constrained_intra=0 / bframes=9 / b_pyramid=2 / b_adapt=2 / b_bias=0 / direct=3 / weightb=1 / open_gop=0 / weightp=2 / keyint=250 / keyint_min=23 / scenecut=40 / intra_refresh=0 / rc_lookahead=60 / rc=crf / mbtree=1 / crf=17.0 / qcomp=0.70 / qpmin=0 / qpmax=69 / qpstep=4 / vbv_maxrate=40000 / vbv_bufsize=30000 / crf_max=0.0 / nal_hrd=none / frame-packing=4 / ip_ratio=1.40 / aq=1:0.70
Язык : de
Язык : German
Язык : German
Язык : de
Язык : deu
Язык : de
Default : Yes
Default : Да
Forced : No
Forced : Нет

Аудио #1
Кол-во : 235
Кол-во потоков такого типа : 2
Тип потока : Audio
Тип потока : Аудио
Идентификатор типа потока : 0
Позиция идентификатора типа потока : 1
StreamOrder : 1
Inform : Russian, 448 Кбит/сек, 48,0 КГц, 16 бит, 2 канала, AC-3
Идентификатор : 2
Идентификатор : 2
Уникальный идентификатор : 3958598795959194263
Формат : AC-3
Формат/Информация : Audio Coding 3
Коммерческое название : AC-3
Расширение режима : CM (complete main)
Параметр Endianness формата : Big
Идентификатор кодека : A_AC3
Кодек : AC3
Кодек : AC3
Кодек/Семейство : AC3
Кодек/Информация : Dolby AC3
Продолжительность : 3439478
Продолжительность : 57 м.
Продолжительность : 57 м. 19 с. 478 мс.
Продолжительность : 57 м.
Продолжительность : 00:57:19.478
Вид битрейта : CBR
Вид битрейта : Постоянный
Битрейт : 448000
Битрейт : 448 Кбит/сек
Каналы : 2
Каналы : 2 канала
Расположение каналов : Front: L R
Расположение каналов : 2/0/0
Частота : 48000
Частота : 48,0 КГц
Количество образцов : 165094944
Разрешение : 16
Разрешение : 16 бит
Битовая глубина : 16
Битовая глубина : 16 бит
Метод сжатия : Lossy
Метод сжатия : С потерями
Задержка : 0
Задержка : 00:00:00.000
Задержка в оригинале : Container
Задержка в оригинале : Контейнер
Задержка видео : 0
Задержка видео : 0
Размер потока : 192610768
Размер потока : 184 Мбайт (2%)
Размер потока : 184 Мбайт
Размер потока : 184 Мбайт
Размер потока : 184 Мбайт
Размер потока : 183,7 Мбайт
Размер потока : 184 Мбайт (2%)
Пропорции потока : 0.02299
Заголовок : Дубляж - BD 3D
Язык : ru
Язык : Russian
Язык : Russian
Язык : ru
Язык : rus
Язык : ru
Default : Yes
Default : Да
Forced : No
Forced : Нет
bsid : 8
dialnorm : -31
dialnorm/String : -31 dB
dsurmod : 0
acmod : 2
lfeon : 0
dialnorm_Average : -31
dialnorm_Average/String : -31 dB
dialnorm_Minimum : -31
dialnorm_Minimum/String : -31 dB
dialnorm_Maximum : -31
dialnorm_Maximum/String : -31 dB
dialnorm_Count : 2

Аудио #2
Кол-во : 235
Кол-во потоков такого типа : 2
Тип потока : Audio
Тип потока : Аудио
Идентификатор типа потока : 1
Позиция идентификатора типа потока : 2
StreamOrder : 2
Inform : English, 448 Кбит/сек, 48,0 КГц, 16 бит, 2 канала, AC-3
Идентификатор : 3
Идентификатор : 3
Уникальный идентификатор : 2628558462568647608
Формат : AC-3
Формат/Информация : Audio Coding 3
Коммерческое название : AC-3
Расширение режима : CM (complete main)
Параметр Endianness формата : Big
Идентификатор кодека : A_AC3
Кодек : AC3
Кодек : AC3
Кодек/Семейство : AC3
Кодек/Информация : Dolby AC3
Продолжительность : 3439478
Продолжительность : 57 м.
Продолжительность : 57 м. 19 с. 478 мс.
Продолжительность : 57 м.
Продолжительность : 00:57:19.478
Вид битрейта : CBR
Вид битрейта : Постоянный
Битрейт : 448000
Битрейт : 448 Кбит/сек
Каналы : 2
Каналы : 2 канала
Расположение каналов : Front: L R
Расположение каналов : 2/0/0
Частота : 48000
Частота : 48,0 КГц
Количество образцов : 165094944
Разрешение : 16
Разрешение : 16 бит
Битовая глубина : 16
Битовая глубина : 16 бит
Метод сжатия : Lossy
Метод сжатия : С потерями
Задержка : 0
Задержка : 00:00:00.000
Задержка в оригинале : Container
Задержка в оригинале : Контейнер
Задержка видео : 0
Задержка видео : 0
Размер потока : 192610768
Размер потока : 184 Мбайт (2%)
Размер потока : 184 Мбайт
Размер потока : 184 Мбайт
Размер потока : 184 Мбайт
Размер потока : 183,7 Мбайт
Размер потока : 184 Мбайт (2%)
Пропорции потока : 0.02299
Язык : en
Язык : English
Язык : English
Язык : en
Язык : eng
Язык : en
Default : No
Default : Нет
Forced : No
Forced : Нет
bsid : 8
dialnorm : -31
dialnorm/String : -31 dB
dsurmod : 0
acmod : 2
lfeon : 0
dialnorm_Average : -31
dialnorm_Average/String : -31 dB
dialnorm_Minimum : -31
dialnorm_Minimum/String : -31 dB
dialnorm_Maximum : -31
dialnorm_Maximum/String : -31 dB
dialnorm_Count : 2

Меню
Кол-во : 83
Кол-во потоков такого типа : 1
Тип потока : Menu
Тип потока : Меню
Идентификатор типа потока : 0
Chapters_Pos_Begin : 75
Chapters_Pos_End : 83
00:00:00.000 : :1
00:06:34.561 : :2
00:13:25.596 : :3
00:20:59.967 : :4
00:28:03.515 : :5
00:35:52.859 : :6
00:42:53.404 : :7
00:50:45.042 : :8





piratbit.org



Скачать Хищники океанов 3D через торрент http://trueimages.ru/img/12/70/f9100925.jpg Скачать фильм Хищники океанов 3D через торрент бесплантно в хорошем качестве Описание:Присоединяйтесь к захватывающему погружению в глубины океана в поисках самых опасных хищников! Вас ждет немало поразительных ... 9.7 10 32
Info! Золотая раздача, скачанное не засчитывается.
Торрент: Зарегистрирован [2013-11-23 01:40] · скачан: 1 047 раз
Статус: √ проверено
Размер: 7.8 GB
Как cкачать? Как скачать Хищники океанов 3D через торрент | qTorrent


>> Регистрируемся здесь <<






Отзывы и комментарии о схеме читаем и пишем здесь: ---> Отзывы и комментарии о схеме

Новые благодарочки в телеграм довольных пользователей:
скриншот   скриншот   скриншот   скриншот   скриншот

31-12-2014 13:35 Хищники океанов 3D Скачать торрент  

с младшим смотрели в 3д уже несколько фильмов про морских животных, красиво, всё время пытается потрогать рыбок, змеек. спасибоpiratbit.org



    Дорогой пользователь! Огромная просьба, поблагодарите релизера, оцените раздачу и оставьте свои комментарий, если Вы скачали Хищники океанов 3D через торрент бесплатно! Внесите свою лепту в развитие PiratBit!
    Комментировать посты могут только пользователи прошедшие не сложную регистрацию
    Показать сообщения:    

    Хищники океанов 3D через торрент
    Скачать бесплатно Хищники океанов 3D
    Хищники океанов 3D скачать торрент
    Хищники океанов 3D смотреть онлайн
    Cкачать фильм Хищники океанов 3D бесплатно
    Хищники океанов 3D скачать торрент в хорошем качестве
    Хищники океанов 3D смотреть онлайн бесплатно в хорошем качестве


    Вы не можете начинать темы
    Вы не можете отвечать на сообщения
    Вы не можете редактировать свои сообщения
    Вы не можете удалять свои сообщения
    Вы не можете голосовать в опросах
    Вы не можете прикреплять файлы к сообщениям
    Вы можете скачивать файлы