новый адрес
Мега распродажа FORZA HORIZON 4 ULTIMATE+ВСЕ DLC+ОНЛАЙН всего за 499р. 349 руб. (супер цена). Внимание количество ограничено!!!

iTunes

1+1

iTunes

мы

iTunes

1

iTunes

Чернобыль

iTunes

Ральф против интернета

Лицензия

ПШазам

Лицензия

Оно 2

Лицензия

30
pack

ВАЖНО

!!Акция!!

Alien_RageХит недели

RePack

Resident Evil 21

ИГРА 18+

pack

RePack

Metro:Exodus

!!Акция!!

Alien_Rage

RePack

fifa19

RePack

Assassins Creed: Odyssey

RePack

NEED FOR SPEED™ PAYBACK

3 сезон

9 сезон

Бесстыжие 9 сезон

Все сериалы

все сериалы на PB.wtf

RePack

FAR CRY 5
Ребята, катастрофически не хватает 1900р. для оплаты серверов за Октябрь (всвязи с блокировками трафик упал в 3 раза), 1-2р., выручайте.
  

Наша Вселенная 3D / Our Universe 3D (Калле Макс Хофманн / Kalle Max Hofmann) [ 2013 , США , документальный , BDRip1080 ](полное дублирование)Half OverUnder piratbit.org

Наша Вселенная 3D через торрент piratbit.org

Размер: 3.84 GB | Добавлен: 5 лет 11 мес. назад | Торрент скачан:1480 раз
Скачать  

24-11-2013 03:56 Наша Вселенная 3D Скачать торрент  

Наша Вселенная 3D / Our Universe 3D
Год выпуска: 2013
Страна: США
Жанр: документальный
Продолжительность: 00:51:33
Перевод: Профессиональный (полное дублирование)
Субтитры: Нет

Режиссер: Калле Макс Хофманн / Kalle Max Hofmann
Сценарий: Калле Макс Хофманн / Kalle Max Hofmann
Продюсер: Mirko Geuther, Тимо Дж. Мэйер / Timo Joh. Mayer, Лизе Романофф / Lise Romanoff

Манфред Леманн (рассказчик (German)), Глен МакКреди (рассказчик (English))

Мировая премьера: 6 ноября 2013
Релиз на Blu-ray: 21 ноября 2013,«Двадцатый Век Фокс СНГ»

Описание:Звездное небо было объектом внимания людей с доисторических времен. И неудивительно, ведь именно в глубинах вселенной зародилась жизнь. В наши дни, благодаря современным технологиям, самые невероятные и удивительные секреты вселенной стали доступны для понимания. Космические корабли и роботизированные зонды исследуют, сканируют и фотографируют миллиарды отдаленных планет. С помощью уникальной передовой технологии «Наша вселенная 3D» даст вам возможность насладиться сногсшибательными видами и разгадать необыкновенные звездные феномены, не выходя из дома.

Рейтинг
kinopoisk.ru: 7.917 (27)
imdb.com: 8.20 (13)

Качество: BDRip1080
Формат: MKV
Видео кодек: AVC
Аудио кодек: AC3
Видео: 9552 Кбит/сек, 1920*1080 (16:9), в 23,976 кадра/сек, AVC
Аудио №1: русский 448 Кбит/сек, 48,0 КГц, 16 бит, 2 канала, AC-3
Аудио №2: английский 448 Кбит/сек, 48,0 КГц, 16 бит, 2 канала, AC-3

Формат 3D:Half OverUnder / Вертикальная анаморфная стереопара
Порядок ракурсов:левый ракурс первый

Общее
Кол-во : 284
Кол-во потоков такого типа : 1
Тип потока : General
Тип потока : Общее
Идентификатор типа потока : 0
Inform : Matroska: 3,84 Гбайт, 51 м.
Уникальный идентификатор : 174861817038259804279373705101792408100
Уникальный идентификатор : 174861817038259804279373705101792408100 (0x838D29347033324888897D9692927224)
Кол-во видеопотоков : 1
Кол-во аудиопотоков : 2
Кол-во потоков меню : 1
Video_Format_List : AVC
Video_Format_WithHint_List : AVC
Видеокодеки : AVC
Video_Language_List : English
Audio_Format_List : AC-3 / AC-3
Audio_Format_WithHint_List : AC-3 / AC-3
Аудиокодеки : AC3 / AC3
Audio_Language_List : Russian / English
Полное имя : H:ТОРРЕНТЫНаша Вселенная.mkv
Имя папки : H:ТОРРЕНТЫ
Имя файла : Наша Вселенная
Расширение : mkv
Формат : Matroska
Формат : Matroska
Формат/Ссылка : http://packs.matroska.org/
Формат/Используется в : mkv mk3d mka mks
Коммерческое название : Matroska
Версия формата : Version 2
Кодек : Matroska
Кодек : Matroska
Кодек/Ссылка : http://packs.matroska.org/
Кодек/Используется в : mkv mk3d mka mks
Размер файла : 4121673669
Размер файла : 3,84 Гбайт
Размер файла : 4 Гбайт
Размер файла : 3,8 Гбайт
Размер файла : 3,84 Гбайт
Размер файла : 3,839 Гбайт
Продолжительность : 3093132
Продолжительность : 51 м.
Продолжительность : 51 м. 33 с. 132 мс.
Продолжительность : 51 м.
Продолжительность : 00:51:33.132
Общий поток : 10660195
Общий поток : 10,7 Мбит/сек
Размер потока : 82017847
Размер потока : 78,2 Мбайт (2%)
Размер потока : 78 Мбайт
Размер потока : 78 Мбайт
Размер потока : 78,2 Мбайт
Размер потока : 78,22 Мбайт
Размер потока : 78,2 Мбайт (2%)
Пропорции потока : 0.01990
Заголовок : Наша Вселенная / Our Universe (2013) 3D
Название фильма : Наша Вселенная / Our Universe (2013) 3D
Дата кодирования : UTC 2013-11-16 13:54:10
Дата файла : UTC 2013-11-24 03:09:28.373
Дата файла (местная) : 2013-11-24 10:09:28.373
Дата изменения файла : UTC 2013-11-24 03:22:01.980
Дата изменения файла (местная) : 2013-11-24 10:22:01.980
Программа кодирования : mkvmerge v5.8.0 ('No Sleep / Pillow') built on Sep 2 2012 15:37:04
Библиотека кодирования : libebml v1.2.3 + libmatroska v1.3.0
Библиотека кодирования : libebml v1.2.3 + libmatroska v1.3.0

Видео
Кол-во : 271
Кол-во потоков такого типа : 1
Тип потока : Video
Тип потока : Видео
Идентификатор типа потока : 0
StreamOrder : 0
Inform : English, 9552 Кбит/сек, 1920*1080 (16:9), в 23,976 кадра/сек, AVC (High@L4.1) (CABAC / 4 Ref Frames)
Идентификатор : 1
Идентификатор : 1
Уникальный идентификатор : 1
Формат : AVC
Формат/Информация : Advanced Video Codec
Формат/Ссылка : http://developers.videolan.org/x264.html
Коммерческое название : AVC
Профиль формата : High@L4.1
Настройки формата : CABAC / 4 Ref Frames
Параметр CABAC формата : Yes
Параметр CABAC формата : Да
Параметр ReFrames формата : 4
Параметр ReFrames формата : 4 кадра
Интернет-тип носителя : video/H264
Идентификатор кодека : V_MPEG4/ISO/AVC
Идентификатор кодека/Ссылка : http://ffdshow-tryout.sourceforge.net/
Кодек : V_MPEG4/ISO/AVC
Кодек : AVC
Кодек/Семейство : AVC
Кодек/Информация : Advanced Video Codec
Кодек/Ссылка : http://ffdshow-tryout.sourceforge.net/
Профиль кодека : High@L4.1
Настройки кодека : CABAC / 4 Ref Frames
Параметр CABAC кодека : Yes
Codec_Settings_RefFrames : 4
Продолжительность : 3093135
Продолжительность : 51 м.
Продолжительность : 51 м. 33 с. 135 мс.
Продолжительность : 51 м.
Продолжительность : 00:51:33.135
Битрейт : 9552057
Битрейт : 9552 Кбит/сек
Ширина : 1920
Ширина : 1920 пикселей
Высота : 1080
Высота : 1080 пикселей
Пропорции пикселя : 1.000
Соотношение сторон : 1.778
Соотношение сторон : 16:9
Режим частоты кадров : CFR
Режим частоты кадров : Постоянный
Частота кадров : 23.976
Частота кадров : 23,976 кадра/сек
Счётчик кадров : 74161
Разрешение : 8
Разрешение : 8 бит
Колориметрия : 4:2:0
Цветовое пространство : YUV
Субдискретизация насыщенности : 4:2:0
Битовая глубина : 8
Битовая глубина : 8 бит
Тип развёртки : Progressive
Тип развёртки : Прогрессивная
Переплетение : PPF
Переплетение : Прогрессивная
Бит/(Пиксели*Кадры) : 0.192
Задержка : 0
Задержка : 00:00:00.000
Задержка в оригинале : Container
Задержка в оригинале : Контейнер
Размер потока : 3693225038
Размер потока : 3,44 Гбайт (90%)
Размер потока : 3 Гбайт
Размер потока : 3,4 Гбайт
Размер потока : 3,44 Гбайт
Размер потока : 3,440 Гбайт
Размер потока : 3,44 Гбайт (90%)
Пропорции потока : 0.89605
Заголовок : BDRip by Ash61
Библиотека кодирования : x264 - core 129 r2245 bc13772
Библиотека кодирования : x264 core 129 r2245 bc13772
Библиотека кодирования/Имя : x264
Библиотека кодирования/Version : core 129 r2245 bc13772
Настройки программы : cabac=1 / ref=4 / deblock=1:-3:-3 / analyse=0x3:0x113 / me=umh / subme=10 / psy=1 / psy_rd=1.00:0.15 / mixed_ref=1 / me_range=32 / chroma_me=1 / trellis=2 / 8x8dct=1 / cqm=0 / deadzone=21,11 / fast_pskip=1 / chroma_qp_offset=-3 / threads=12 / lookahead_threads=2 / sliced_threads=0 / nr=0 / decimate=1 / interlaced=0 / bluray_compat=0 / constrained_intra=0 / bframes=8 / b_pyramid=2 / b_adapt=2 / b_bias=0 / direct=3 / weightb=1 / open_gop=0 / weightp=2 / keyint=250 / keyint_min=23 / scenecut=40 / intra_refresh=0 / rc_lookahead=60 / rc=crf / mbtree=1 / crf=17.0 / qcomp=0.70 / qpmin=0 / qpmax=69 / qpstep=4 / vbv_maxrate=40000 / vbv_bufsize=30000 / crf_max=0.0 / nal_hrd=none / frame-packing=4 / ip_ratio=1.40 / aq=1:0.70
Язык : en
Язык : English
Язык : English
Язык : en
Язык : eng
Язык : en
Default : Yes
Default : Да
Forced : No
Forced : Нет

Аудио #1
Кол-во : 235
Кол-во потоков такого типа : 2
Тип потока : Audio
Тип потока : Аудио
Идентификатор типа потока : 0
Позиция идентификатора типа потока : 1
StreamOrder : 1
Inform : Russian, 448 Кбит/сек, 48,0 КГц, 16 бит, 2 канала, AC-3
Идентификатор : 2
Идентификатор : 2
Уникальный идентификатор : 3428515636836833931
Формат : AC-3
Формат/Информация : Audio Coding 3
Коммерческое название : AC-3
Расширение режима : CM (complete main)
Параметр Endianness формата : Big
Идентификатор кодека : A_AC3
Кодек : AC3
Кодек : AC3
Кодек/Семейство : AC3
Кодек/Информация : Dolby AC3
Продолжительность : 3093132
Продолжительность : 51 м.
Продолжительность : 51 м. 33 с. 132 мс.
Продолжительность : 51 м.
Продолжительность : 00:51:33.132
Вид битрейта : CBR
Вид битрейта : Постоянный
Битрейт : 448000
Битрейт : 448 Кбит/сек
Каналы : 2
Каналы : 2 канала
Расположение каналов : Front: L R
Расположение каналов : 2/0/0
Частота : 48000
Частота : 48,0 КГц
Количество образцов : 148470336
Разрешение : 16
Разрешение : 16 бит
Битовая глубина : 16
Битовая глубина : 16 бит
Метод сжатия : Lossy
Метод сжатия : С потерями
Задержка : 0
Задержка : 00:00:00.000
Задержка в оригинале : Container
Задержка в оригинале : Контейнер
Задержка видео : 0
Задержка видео : 0
Размер потока : 173215392
Размер потока : 165 Мбайт (4%)
Размер потока : 165 Мбайт
Размер потока : 165 Мбайт
Размер потока : 165 Мбайт
Размер потока : 165,2 Мбайт
Размер потока : 165 Мбайт (4%)
Пропорции потока : 0.04203
Заголовок : Дубляж - BD 3D
Язык : ru
Язык : Russian
Язык : Russian
Язык : ru
Язык : rus
Язык : ru
Default : Yes
Default : Да
Forced : No
Forced : Нет
bsid : 8
dialnorm : -31
dialnorm/String : -31 dB
dsurmod : 0
acmod : 2
lfeon : 0
dialnorm_Average : -31
dialnorm_Average/String : -31 dB
dialnorm_Minimum : -31
dialnorm_Minimum/String : -31 dB
dialnorm_Maximum : -31
dialnorm_Maximum/String : -31 dB
dialnorm_Count : 2

Аудио #2
Кол-во : 235
Кол-во потоков такого типа : 2
Тип потока : Audio
Тип потока : Аудио
Идентификатор типа потока : 1
Позиция идентификатора типа потока : 2
StreamOrder : 2
Inform : English, 448 Кбит/сек, 48,0 КГц, 16 бит, 2 канала, AC-3
Идентификатор : 3
Идентификатор : 3
Уникальный идентификатор : 11750049808677823877
Формат : AC-3
Формат/Информация : Audio Coding 3
Коммерческое название : AC-3
Расширение режима : CM (complete main)
Параметр Endianness формата : Big
Идентификатор кодека : A_AC3
Кодек : AC3
Кодек : AC3
Кодек/Семейство : AC3
Кодек/Информация : Dolby AC3
Продолжительность : 3093132
Продолжительность : 51 м.
Продолжительность : 51 м. 33 с. 132 мс.
Продолжительность : 51 м.
Продолжительность : 00:51:33.132
Вид битрейта : CBR
Вид битрейта : Постоянный
Битрейт : 448000
Битрейт : 448 Кбит/сек
Каналы : 2
Каналы : 2 канала
Расположение каналов : Front: L R
Расположение каналов : 2/0/0
Частота : 48000
Частота : 48,0 КГц
Количество образцов : 148470336
Разрешение : 16
Разрешение : 16 бит
Битовая глубина : 16
Битовая глубина : 16 бит
Метод сжатия : Lossy
Метод сжатия : С потерями
Задержка : 0
Задержка : 00:00:00.000
Задержка в оригинале : Container
Задержка в оригинале : Контейнер
Задержка видео : 0
Задержка видео : 0
Размер потока : 173215392
Размер потока : 165 Мбайт (4%)
Размер потока : 165 Мбайт
Размер потока : 165 Мбайт
Размер потока : 165 Мбайт
Размер потока : 165,2 Мбайт
Размер потока : 165 Мбайт (4%)
Пропорции потока : 0.04203
Заголовок : Original - BD 3D
Язык : en
Язык : English
Язык : English
Язык : en
Язык : eng
Язык : en
Default : No
Default : Нет
Forced : No
Forced : Нет
bsid : 8
dialnorm : -31
dialnorm/String : -31 dB
dsurmod : 0
acmod : 2
lfeon : 0
dialnorm_Average : -31
dialnorm_Average/String : -31 dB
dialnorm_Minimum : -31
dialnorm_Minimum/String : -31 dB
dialnorm_Maximum : -31
dialnorm_Maximum/String : -31 dB
dialnorm_Count : 2

Меню
Кол-во : 85
Кол-во потоков такого типа : 1
Тип потока : Menu
Тип потока : Меню
Идентификатор типа потока : 0
Chapters_Pos_Begin : 77
Chapters_Pos_End : 85
00:00:00.000 : :1
00:07:03.214 : :2
00:12:49.268 : :3
00:19:15.613 : :4
00:25:54.762 : :5
00:31:54.287 : :6
00:36:05.497 : :7
00:42:25.460 : :8


скриншот  скриншот  скриншот  скриншот  скриншот  скриншот  скриншот  скриншот  



piratbit.org



Скачать Наша Вселенная 3D через торрент http://trueimages.ru/img/64/57/69271925.jpg Скачать фильм Наша Вселенная 3D через торрент бесплантно в хорошем качестве Описание:Звездное небо было объектом внимания людей с доисторических времен. И неудивительно, ведь именно в глубинах вселенной зародилась ... 10 10 41
Info! Золотая раздача, скачанное не засчитывается.
Торрент: Зарегистрирован [2013-11-24 03:56] · скачан: 1 480 раз
Статус: √ проверено
Размер: 3.84 GB
Как cкачать? Как скачать Наша Вселенная 3D через торрент | qTorrent


>> Регистрируемся здесь <<






Отзывы и комментарии о схеме читаем и пишем здесь: ---> Отзывы и комментарии о схеме

Новые благодарочки в телеграм довольных пользователей:
скриншот   скриншот   скриншот   скриншот   скриншот

24-11-2013 04:04 Наша Вселенная 3D Скачать торрент  

Народ кончились денежки были бы позолотил бы ))) piratbit.org



24-11-2013 04:18 Наша Вселенная 3D Скачать торрент  

GEKADOL

Держи piratbit.org



    Дорогой пользователь! Огромная просьба, поблагодарите релизера, оцените раздачу и оставьте свои комментарий, если Вы скачали Наша Вселенная 3D через торрент бесплатно! Внесите свою лепту в развитие PiratBit!
    Комментировать посты могут только пользователи прошедшие не сложную регистрацию
    Показать сообщения:    

    Наша Вселенная 3D через торрент
    Скачать бесплатно Наша Вселенная 3D
    Наша Вселенная 3D скачать торрент
    Наша Вселенная 3D смотреть онлайн
    Cкачать фильм Наша Вселенная 3D бесплатно
    Наша Вселенная 3D скачать торрент в хорошем качестве
    Наша Вселенная 3D смотреть онлайн бесплатно в хорошем качестве


    Вы не можете начинать темы
    Вы не можете отвечать на сообщения
    Вы не можете редактировать свои сообщения
    Вы не можете удалять свои сообщения
    Вы не можете голосовать в опросах
    Вы не можете прикреплять файлы к сообщениям
    Вы можете скачивать файлы