Ссылка на приватное зеркало нашего сайта всего за 1$. Внимание количество ограничено!!!

2 сезон

iTunes

iTunes

1

iTunes

iTunes

iTunes

WEBRip

iTunes

30
pack

Вам бонус

ВАЖНО

!!Акция!!

Alien_RageХит недели

RePack

Horizon Zero Dawn

ИГРА 18+

pack

RePack

jed

!!Акция!!

Alien_Rage

RePack

fifa19

RePack

Assassins Creed: Odyssey

RePack

NEED FOR SPEED™ PAYBACK

4 сезон

9 сезон

Бесстыжие 9 сезон

Все сериалы

все сериалы на PB.wtf

RePack

FAR CRY 5
  

Остаться в живых / Stay Alive (Уильям Брент Белл / William Brent Bell) [ 2006 , США , ужасы, триллер , DVDRip ](многоголосый, закадровый) piratbit.org

Остаться в живых через торрент piratbit.org

Размер: 1.46 GB | Добавлен: 6 лет 9 мес. назад | Торрент скачан:82 раза
Скачать  

30-11-2013 04:44 Остаться в живых Скачать торрент  

Остаться в живых / Stay Alive
Год выпуска: 2006
Страна: США
Жанр: ужасы, триллер
Продолжительность: 01:36:42
Перевод: Профессиональный (многоголосый, закадровый)
Субтитры: Нет

Режиссер: Уильям Брент Белл / William Brent Bell
Сценарий: Уильям Брент Белл / William Brent Bell, Мэттью Питерман / Matthew Peterman
Продюсер: Гари Барбер / Gary Barber, МакДжи / McG, Мэттью Питерман / Matthew Peterman, Питер Шлессель / Peter Schlessel, Эрин Стам / Erin Stam
Оператор: Алехандро Мартинез / Alejandro Martínez
Композитор: Джон Фриззелл / John Frizzell

Джон Фостер (Hutch), Самира Армстронг (Abigail), Фрэнки Муниз (Swink), Джимми Симпсон (Phineus), Уенделл Пирс (Detective Thibodeaux), Майло Вентимилья (Loomis Crowley), София Буш (October), Адам Голдберг (Miller Banks), Билли Слотер (Rex), Николь Оппермэнн (Sarah), Эйприл Вуд (Loretta), Моника Моника (Mrs. Crowley)

Роли дублировали:Василий Дахненко (Hutch), Елена Соловьева (Abigail), Михаил Тихонов (Swink), Пётр Иващенко (Phineus), Александр Рахленко (Detective Thibodeaux), Александр Гаврилин (Loomis Crowley), Мария Овчинникова (October), Елена Ивасишина, Илья Бледный (Miller Banks)

Бюджет: $9 000 000
Сборы в США: $23 086 480
Сборы в России: $445 000
Сборы в мире: $27 105 095

Мировая премьера: 24 марта 2006
Релиз на DVD: 27 января 2009,«Парадиз Медиа»

Описание:Группа подростков из Нью-Орлеана просто помешана на пугающей ролевой видео-игре - «Остаться в живых». Суть игры - разыгрывать леденящие душу истории из жизни таинственной аристократки, которая жила в 17 веке и носила прозвище «Кровавая графиня».
Неожиданно один за другим подростки начинают погибать, причем убивают их тем же изощренным способом, что и их персонажей. Жестокий вымысел все теснее и теснее переплетается с реальностью... Ребятам нужно успеть победить порочную и беспощадную «Кровавую графиню». Им нужно остаться в живых...

Рейтинг
kinopoisk.ru: 6.498 (9473)
imdb.com: 4.70 (20 811)
MPAA: PG-13 - Детям до 13 лет просмотр не желателен

Качество: DVDRip
Формат: AVI
Видео кодек: XviD
Аудио кодек: AC3
Видео: 1702 Кбит/сек, 704*304 (2,35:1), в 25,000 кадров/сек, MPEG-4 Visual (XviD)
Аудио: 448 Кбит/сек, 48,0 КГц, 16 бит, 6 каналов, AC-3

Общее
Кол-во : 284
Кол-во потоков такого типа : 1
Тип потока : General
Тип потока : Общее
Идентификатор типа потока : 0
Inform : AVI: 1,46 Гбайт, 1 ч. 36 м.
Кол-во видеопотоков : 1
Кол-во аудиопотоков : 1
Video_Format_List : MPEG-4 Visual
Video_Format_WithHint_List : MPEG-4 Visual (XviD)
Видеокодеки : XviD
Audio_Format_List : AC-3
Audio_Format_WithHint_List : AC-3
Аудиокодеки : AC3
Полное имя : H:ТОРРЕНТЫОстаться в живых.avi
Имя папки : H:ТОРРЕНТЫ
Имя файла : Остаться в живых
Расширение : avi
Формат : AVI
Формат : AVI
Формат/Информация : Audio Video Interleave
Формат/Используется в : avi
Коммерческое название : AVI
Интернет-тип носителя : video/vnd.avi
Чередующаяся : Yes
Кодек : AVI
Кодек : AVI
Кодек/Информация : Audio Video Interleave
Кодек/Используется в : avi
Размер файла : 1566078976
Размер файла : 1,46 Гбайт
Размер файла : 1 Гбайт
Размер файла : 1,5 Гбайт
Размер файла : 1,46 Гбайт
Размер файла : 1,459 Гбайт
Продолжительность : 5802280
Продолжительность : 1 ч. 36 м.
Продолжительность : 1 ч. 36 м. 42 с. 280 мс.
Продолжительность : 1 ч. 36 м.
Продолжительность : 01:36:42.280
Общий поток : 2159260
Общий поток : 2159 Кбит/сек
Размер потока : 7045866
Размер потока : 6,72 Мбайт (0%)
Размер потока : 7 Мбайт
Размер потока : 6,7 Мбайт
Размер потока : 6,72 Мбайт
Размер потока : 6,719 Мбайт
Размер потока : 6,72 Мбайт (0%)
Пропорции потока : 0.00450
Дата файла : UTC 2013-11-30 04:11:37.963
Дата файла (местная) : 2013-11-30 11:11:37.963
Дата изменения файла : UTC 2013-11-30 04:19:17.890
Дата изменения файла (местная) : 2013-11-30 11:19:17.890
Программа кодирования : VirtualDubMod 1.5.10.3 | www.virtualdub-fr.org || (build 2550/release)
Библиотека кодирования : VirtualDubMod build 2550/release
Библиотека кодирования : VirtualDubMod build 2550/release

Видео
Кол-во : 271
Кол-во потоков такого типа : 1
Тип потока : Video
Тип потока : Видео
Идентификатор типа потока : 0
StreamOrder : 0
Inform : 1702 Кбит/сек, 704*304 (2,35:1), в 25,000 кадров/сек, MPEG-4 Visual (XviD) (Advanced Simple@L5) (BVOP1 / Custom Matrix)
Идентификатор : 0
Идентификатор : 0
Формат : MPEG-4 Visual
Коммерческое название : MPEG-4 Visual
Профиль формата : Advanced Simple@L5
Настройки формата : BVOP1 / Custom Matrix
Параметр BVOP формата : 1
Параметр BVOP формата : 1
Параметр QPel формата : No
Параметр QPel формата : Нет
Параметр GMC формата : 0
Параметр GMC формата : Без точки перехода
Параметр матрицы формата : Custom
Параметр матрицы формата : Выборочная
Format_Settings_Matrix_Data : 080E0E0E0E0E0E0E0E0E0F0E0F0E0F0F0F0F0F0F0F1210111211101215131315151313151616171A171616191B1E1E1B191F2326231F282E2E28383D384C4C63 / 131313131313131313131413141314151415151415181617181716181C1A1A1C1C1A1A1C1D1D1F231F1D1D2224292924222A3033302A373F3F374C534C676786
Интернет-тип носителя : video/MP4V-ES
Идентификатор кодека : XVID
Идентификатор кодека/Подсказка : XviD
Идентификатор кодека/Ссылка : http://mediaarea.net/XVID
Кодек : XVID
Кодек : XviD
Кодек/Семейство : MPEG-4V
Кодек/Информация : XviD project
Кодек/Ссылка : http://www.xvid.org/Downloads.15.0.html
Кодек/CC : XVID
Профиль кодека : Advanced Simple@L5
Настройки кодека : BVOP / Custom Matrix
Параметр пакетного потока данных кодека : No
Параметр BVOP кодека : Yes
Параметр QPel кодека : No
Параметр GMC кодека : 0
Параметр GMC кодека : Без точки перехода
Параметр матрицы кодека : Custom
Продолжительность : 5802280
Продолжительность : 1 ч. 36 м.
Продолжительность : 1 ч. 36 м. 42 с. 280 мс.
Продолжительность : 1 ч. 36 м.
Продолжительность : 01:36:42.280
Битрейт : 1701546
Битрейт : 1702 Кбит/сек
Ширина : 704
Ширина : 704 пикселя
Высота : 304
Высота : 304 пикселя
Пропорции пикселя : 1.000
Соотношение сторон : 2.316
Соотношение сторон : 2,35:1
Частота кадров : 25.000
Частота кадров : 25,000 кадров/сек
Счётчик кадров : 145057
Разрешение : 8
Разрешение : 8 бит
Колориметрия : 4:2:0
Цветовое пространство : YUV
Субдискретизация насыщенности : 4:2:0
Битовая глубина : 8
Битовая глубина : 8 бит
Тип развёртки : Progressive
Тип развёртки : Прогрессивная
Переплетение : PPF
Переплетение : Прогрессивная
Метод сжатия : Lossy
Метод сжатия : С потерями
Бит/(Пиксели*Кадры) : 0.318
Задержка : 0
Задержка : 00:00:00.000
Размер потока : 1234105430
Размер потока : 1,15 Гбайт (79%)
Размер потока : 1 Гбайт
Размер потока : 1,1 Гбайт
Размер потока : 1,15 Гбайт
Размер потока : 1,149 Гбайт
Размер потока : 1,15 Гбайт (79%)
Пропорции потока : 0.78802
Библиотека кодирования : XviD0073
Библиотека кодирования : XviD 73
Библиотека кодирования/Имя : XviD
Библиотека кодирования/Version : 73

Аудио
Кол-во : 252
Кол-во потоков такого типа : 1
Тип потока : Audio
Тип потока : Аудио
Идентификатор типа потока : 0
StreamOrder : 1
Inform : 448 Кбит/сек, 48,0 КГц, 16 бит, 6 каналов, AC-3
Идентификатор : 1
Идентификатор : 1
Формат : AC-3
Формат/Информация : Audio Coding 3
Коммерческое название : AC-3
Расширение режима : CM (complete main)
Параметр Endianness формата : Big
Идентификатор кодека : 2000
Кодек : AC3
Кодек : AC3
Кодек/Семейство : AC3
Кодек/Информация : Dolby AC3
Кодек/CC : 2000
Продолжительность : 5802280
Продолжительность : 1 ч. 36 м.
Продолжительность : 1 ч. 36 м. 42 с. 280 мс.
Продолжительность : 1 ч. 36 м.
Продолжительность : 01:36:42.280
Вид битрейта : CBR
Вид битрейта : Постоянный
Битрейт : 448000
Битрейт : 448 Кбит/сек
Каналы : 6
Каналы : 6 каналов
Расположение каналов : Front: L C R, Side: L R, LFE
Расположение каналов : 3/2/0.1
Частота : 48000
Частота : 48,0 КГц
Количество образцов : 278509440
Разрешение : 16
Разрешение : 16 бит
Битовая глубина : 16
Битовая глубина : 16 бит
Метод сжатия : Lossy
Метод сжатия : С потерями
Задержка : 500
Задержка : 500 мс.
Задержка : 500 мс.
Задержка : 500 мс.
Задержка : 00:00:00.500
Задержка в оригинале : Stream
Задержка в оригинале : 'Сырой' поток
Задержка видео : 500
Задержка видео : 500 мс.
Задержка видео : 500 мс.
Задержка видео : 500 мс.
Задержка видео : 00:00:00.500
Задержка видео : 500
Задержка видео : 500 мс.
Задержка видео : 500 мс.
Задержка видео : 500 мс.
Задержка видео : 00:00:00.500
Размер потока : 324927680
Размер потока : 310 Мбайт (21%)
Размер потока : 310 Мбайт
Размер потока : 310 Мбайт
Размер потока : 310 Мбайт
Размер потока : 309,9 Мбайт
Размер потока : 310 Мбайт (21%)
Пропорции потока : 0.20748
Выравнивание : Split
Выравнивание : Разделение по промежуткам
Продолжительность промежутка : 1.00
Продолжительность промежутка : 40
Продолжительность промежутка : 40 мс. (1,00 видеокадр)
Время предзагрузки промежутка : 500
Время предзагрузки промежутка : 500 мс.
bsid : 8
dialnorm : -27
dialnorm/String : -27 dB
compr : -0.28
compr/String : -0.28 dB
dynrng : -0.86
dynrng/String : -0.86 dB
acmod : 7
lfeon : 1
dialnorm_Average : -27
dialnorm_Average/String : -27 dB
dialnorm_Minimum : -27
dialnorm_Minimum/String : -27 dB
dialnorm_Maximum : -27
dialnorm_Maximum/String : -27 dB
dialnorm_Count : 373
compr_Average : 4.69
compr_Average/String : 4.69 dB
compr_Minimum : -0.28
compr_Minimum/String : -0.28 dB
compr_Maximum : 5.74
compr_Maximum/String : 5.74 dB
compr_Count : 373
dynrng_Average : -0.00
dynrng_Average/String : -0.00 dB
dynrng_Minimum : -0.86
dynrng_Minimum/String : -0.86 dB
dynrng_Maximum : 0.00
dynrng_Maximum/String : 0.00 dB
dynrng_Count : 373


скриншот  скриншот  скриншот  скриншот  скриншот  скриншот  скриншот  скриншот  скриншот  



piratbit.org



Скачать Остаться в живых через торрент http://trueimages.ru/img/51/43/be569925.jpg Скачать фильм Остаться в живых через торрент бесплантно в хорошем качестве Описание:Группа подростков из Нью-Орлеана просто помешана на пугающей ролевой видео-игре - «Остаться в живых». Суть игры - разыгрывать ... 9.6 10 7
Info! Золотая раздача, скачанное не засчитывается.
Торрент: Зарегистрирован [2013-11-30 04:44] · скачан: 82 раз
Статус: √ проверено
Размер: 1.46 GB
Как cкачать? Как скачать Остаться в живых через торрент | qTorrent

% Раздел Тема Автор DL S | L
Фильмы 2006-2008 [ 1.36 GB ] Остаться в живых / Stay Alive [2006 DVDRip лицензия] racer_999 Скачать
1 | 0
Фильмы 2006-2008 [ 1.46 GB ] Остаться в живых / Stay Alive [2006 DVDRip] flansden Скачать
1 | 0
Фильмы 2006-2008 [ 1.46 GB ] Остаться в живых  / Stay Alive [2006 DVDRip] DEVI Скачать
1 | 0

28-11-2019 20:33  

Отключить всю рекламу на сайте

    Дорогой пользователь! Огромная просьба, поблагодарите релизера, оцените раздачу и оставьте свои комментарий, если Вы скачали Остаться в живых через торрент бесплатно! Внесите свою лепту в развитие PiratBit!
    Комментировать посты могут только пользователи прошедшие не сложную регистрацию
    Показать сообщения:    

    Остаться в живых через торрент
    Скачать бесплатно Остаться в живых
    Остаться в живых скачать торрент
    Остаться в живых смотреть онлайн
    Cкачать фильм Остаться в живых бесплатно
    Остаться в живых скачать торрент в хорошем качестве
    Остаться в живых смотреть онлайн бесплатно в хорошем качестве


    Вы не можете начинать темы
    Вы не можете отвечать на сообщения
    Вы не можете редактировать свои сообщения
    Вы не можете удалять свои сообщения
    Вы не можете голосовать в опросах
    Вы не можете прикреплять файлы к сообщениям
    Вы можете скачивать файлы