Достать ножи: Стеклянная луковица

MVO

Добыча

Дубляж

Уэнсдэй

1 сезон

Тор

Дубляж

13 клиническая

1 сезон

Жестокая ночь

MVO

Одни из нас

1 сезон

Deluxe

pack

Рекомендуем

30

Пиратка

ВАЖНО

ВАЖНО

Ghostwire

Пиратка

jed

RePack

nioh2

RePack

RDR2

RePack

NEED FOR SPEED™ PAYBACK

RePack

скачать торрент

Кинопоиск HD

Острые козырьки 6 сезон

6 сезон

FAR CRY 6

RePack

скачать торрент

Лицензия

скачать торрент

MVO

1

1 сезон

скачать торрент

1 сезон

скачать торрент

Лицензия

  

Малавита / The Family (Люк Бессон / Luc Besson) [2013, Криминал, комедия, боевик, BDRemux, Лицензия]

Малавита через торрент piratbit.org

Размер: 19.82 GB | Добавлен: 9 лет 2 мес. назад | Торрент скачан:295 раз
Смотреть онлайн | Скачать | Поддержите нас   

02-12-2013 08:24 Малавита Скачать торрент  

Малавита / The Family

Год выпуска : 2013
Страна: США, Франция
Жанр: Криминал, комедия, боевик

Продолжительность: 01:46:56
Перевод: Дубляж[Лицензия]
Субтитры: Нет
Режиссер: Люк Бессон / Luc Besson
В ролях: Роберт Де Ниро (Fred Blake /Giovanni Manzoni), Мишель Пфайффер (Maggie Blake), Томми Ли Джонс (Robert Stansfield), Дианна Агрон (Belle Blake), Джон Д’Лео (Warren Blake), Джон Фреда (Rocco), Джимми Палумбо (Di Cicco), Доменик Ломбардоззи (Caputo), Стэн Карп (Don Luchese), Винсент Пасторе (Fat Willy), Майкл Дж. Паникелли мл. (Billy the Bug), Пол Боргезе (Albert)
Описание: Что вы знаете о своих соседях? Особенно о тех, которые заявляются среди ночи... Так, однажды на тихой улочке провинциального французского городка поселился писатель по фамилии Блейк, со своим семейством и собакой Малавитой. На этом многовековое спокойствие города закончилось. Почему сгорел местный супермаркет? Чем рискует медлительный водопроводчик? Что лежит в рюкзаке у милого парня в бежевых бриджах?
Кто бы мог представить, что на самом деле мистер Блейк - бывший глава мафии, которого власти прячут здесь от преследования. И вот в городок приезжают люди «Коза Ностры»...
Рейтинг

imdb.com: 6.40 (12 768)
MPAA: R - Лицам до 17 лет обязательно присутствие взрослого
Качество: BDRemux
Формат: MKV
Видео кодек: AVC
Аудио кодек: DTS/AC3
Видео: AVC, 1920x1080 (16:9), 23803 kbps, 25 fps
Аудио №1: русский / DTS-HD / 5.1 / 48 kHz / 1560 kbps / 16 bit (Core: 5.1 / 48 kHz / 1510 kbps / 16 bit)
Аудио №2: русский / AC3 / 5.1 / 48 kHz / 640 kbps / 16 bit

General
Unique ID : 226575774032324186584849502839870083403 (0xAA74E82344C64D4BBD53B41EDE84514B)
Complete name : H:Малавита-The.Family.(2013).BDRemux.mkv
Format : Matroska
Format version : Version 2
File size : 19.8 GiB
Duration : 1h 46mn
Overall bit rate mode : Variable
Overall bit rate : 26.5 Mbps
Movie name : The Family (2013)
Encoded date : UTC 2013-12-01 22:00:29
Writing application : mkvmerge v5.7.0 ('The Whirlwind') built on Aug 7 2012 14:11:40
Writing library : libebml v1.2.3 + libmatroska v1.3.0
Attachment : Yes

Video
ID : 1
Format : AVC
Format/Info : Advanced Video Codec
Format profile : High@L4.1
Format settings, CABAC : Yes
Format settings, ReFrames : 4 frames
Codec ID : V_MPEG4/ISO/AVC
Duration : 1h 46mn
Bit rate mode : Constant
Bit rate : 23.8 Mbps
Nominal bit rate : 25.0 Mbps
Width : 1 920 pixels
Height : 1 080 pixels
Display aspect ratio : 16:9
Frame rate : 25.000 fps
Standard : PAL
Color space : YUV
Chroma subsampling : 4:2:0
Bit depth : 8 bits
Scan type : MBAFF
Bits/(Pixel*Frame) : 0.459
Stream size : 17.8 GiB (90%)
Title : Малавита-The.Family.(2013).BDRemux.
Language : English
Default : Yes
Forced : No
Color primaries : BT.709-5, BT.1361, IEC 61966-2-4, SMPTE RP177
Transfer characteristics : BT.709-5, BT.1361
Matrix coefficients : BT.709-5, BT.1361, IEC 61966-2-4 709, SMPTE RP177

Audio #1
ID : 2
Format : DTS
Format/Info : Digital Theater Systems
Format profile : MA / Core
Codec ID : A_DTS
Duration : 1h 46mn
Bit rate mode : Variable
Bit rate : 1 561 Kbps / 1 510 Kbps
Channel(s) : 6 channels
Channel positions : Front: L C R, Side: L R, LFE
Sampling rate : 48.0 KHz
Bit depth : 16 bits
Compression mode : Lossless / Lossy
Title : DTS-HD MA 5.1 / 1985 kbps / Дубляж
Language : Russian
Default : Yes
Forced : No

Audio #2
ID : 3
Format : AC-3
Format/Info : Audio Coding 3
Mode extension : CM (complete main)
Codec ID : A_AC3
Duration : 1h 46mn
Bit rate mode : Constant
Bit rate : 640 Kbps
Channel(s) : 6 channels
Channel positions : Front: L C R, Side: L R, LFE
Sampling rate : 48.0 KHz
Bit depth : 16 bits
Compression mode : Lossy
Stream size : 490 MiB (2%)
Title : AC3 5.1 / 640 kbps / Дубляж
Language : Russian
Default : No
Forced : No

Menu
00:00:00.000 : en:Chapter 1
00:08:29.160 : en:Chapter 2
00:14:44.760 : en:Chapter 3
00:24:45.159 : en:Chapter 4
00:31:49.640 : en:Chapter 5
00:40:00.760 : en:Chapter 6
00:47:46.200 : en:Chapter 7
00:56:08.440 : en:Chapter 8
01:01:50.880 : en:Chapter 9
01:12:13.720 : en:Chapter 10
01:19:14.360 : en:Chapter 11
01:32:49.520 : en:Chapter 12



Скачать Малавита через торрент http://i6-imageban-ru.translate.goog/out/2013/12/02/162fe9006bc4f3e0fb7d9e493e694da8.png Скачать, смотреть онлайн Малавита бесплантно в хорошем качестве Описание: Что вы знаете о своих соседях? Особенно о тех, которые заявляются среди ночи... Так, однажды на тихой улочке провинциального ... 9.1 10 11
Info! Золотая раздача, скачанное не засчитывается.
Торрент: Зарегистрирован [2013-12-02 08:24] · скачан: 295 раз
Статус: √ проверено
Размер: 19.82 GB
Как cкачать? Как скачать Малавита через торрент | UTorrent

% Раздел Тема Автор DL S | L
Фильмы [HD 720p, 1080p] (Хороший звук DUB, MVO) [ 9.52 GB ] Малавита / The Family | Лицензия | 1080p, Лицензия лисяра Скачать
1 | 0
Фильмы [HD 720p, 1080p] (Хороший звук DUB, MVO) [ 5.01 GB ] Малавита / The Family | Лицензия | 720p Ворон Скачать
1 | 0
Фильмы (DVD фильмы) [ 4.13 GB ] Малавита / The Family | | 2013, криминал, комедия, боевик, DVD5 voovaz Скачать
1 | 0
Фильмы 2013 [DVDrip, WEB-DLRip, HDrip] [ 2.05 GB ] Малавита / The Family | Лицензия+AVO Дмитрий "Гоблин" Пучков | BDRip, DUB Лицензия+AVO Дмитрий "Гоблин" Пучков Ворон Скачать
1 | 0
Фильмы 2013 [DVDrip, WEB-DLRip, HDrip] [ 1.46 GB ] Малавита / The Family | Лицензия | DVDRip-AVC, DUB Ворон Скачать
1 | 0
Фильмы 2013 [DVDrip, WEB-DLRip, HDrip] [ 1.46 GB ] Малавита / The Family | Лицензия | BDRip, DUB Ворон Скачать
1 | 0
Фильмы 2013 [DVDrip, WEB-DLRip, HDrip] [ 701 MB ] Малавита / The Family | Лицензия | DVDRip, Профессиональный (полное дублирование Ворон Скачать
1 | 0

28-11-2019 20:33  


Отключить вcю реклaмy на сайте, в т.ч. и в плеере онлайн просмотра!

02-12-2013 13:10 Малавита Скачать торрент  

Здесь есть перевод "гоблина" в хорошем качестве?



04-12-2013 15:14 Малавита Скачать торрент  

Видео: AVC, 1920x1080 (16:9), 23803 kbps, 25 fps

Я думал на весь экран будет, без черных полос...



04-12-2013 15:16 Малавита Скачать торрент  

housee писал(а):

Здесь есть перевод "гоблина" в хорошем качестве?

Обе дорожки проф. дубляж. (без его голоса)



20-01-2014 08:30 Малавита Скачать торрент  

mudilko писал(а):

Видео: AVC, 1920x1080 (16:9), 23803 kbps, 25 fps

Я думал на весь экран будет, без черных полос...

а скрины для чего выкладывают?



    Дорогой пользователь! Огромная просьба, поблагодарите релизера, оцените раздачу и оставьте свои комментарий, если Вы скачали Малавита через торрент бесплатно!!
    Комментировать посты могут только пользователи прошедшие не сложную регистрацию
    Показать сообщения:    


    Малавита через торрент
    Скачать бесплатно Малавита
    Малавита скачать торрент
    Малавита смотреть онлайн
    Cкачать фильм Малавита бесплатно
    Малавита скачать торрент в хорошем качестве
    Малавита смотреть онлайн бесплатно в хорошем качестве
    Вы не можете начинать темы
    Вы не можете отвечать на сообщения
    Вы не можете редактировать свои сообщения
    Вы не можете удалять свои сообщения
    Вы не можете голосовать в опросах
    Вы не можете прикреплять файлы к сообщениям
    Вы можете скачивать файлы
    Малавита / The Family [2013, Криминал, комедия, боевик, BDRemux, Лицензия] смотреть онлайн, скачать торрент picoco.icu