1 сезон

iTunes

iTunes

1

Line

MVO

iTunes

13

1 сезон

RePack

30

Deluxe

pack

Лицензия

ВАЖНО

ИГРА 18+

pack

RePack

MK11

RePack

jed

RePack

fifa19

RePack

RDR2

RePack

NEED FOR SPEED™ PAYBACK

4 сезон

9 сезон

Бесстыжие 9 сезон

Все сериалы

все сериалы на PB.wtf

RePack

FAR CRY 5

Anonymous, доброе утро, мы катастрофически не успеваем собрать деньги на оплату серверов, помогите нам пожалуйста 5,10,15р., для нас важна любая помощь . В качестве благодарности мы отключим Вам всю рекламу на сайте (укажите свой ник в строку Ваше имя)!

×
  
Magnet ссылка

Зомби по имени Шон / Shaun of the Dead (Эдгар Райт / Edgar Wright) [2004, комедия, ужасы, BDRip] [VO] (М.Яроцкий (kyberpunk)) piratbit.org

Зомби по имени Шон через торрент piratbit.org

Размер: 1.45 GB | Добавлен: 7 лет 8 мес. назад | Торрент скачан:156 раз
Скачать  

02-12-2013 11:33 Зомби по имени Шон Скачать торрент  

Зомби по имени Шон / Shaun of the Dead
Год выпуска: 2004
Страна: Великобритания, Франция, США
Жанр: комедия, ужасы
Продолжительность: 01:39:27
Перевод: Одноголосый (закадровый) [М.Яроцкий (kyberpunk)]
Cубтитры: нет

Режиссер: Эдгар Райт / Edgar Wright

В ролях: Саймон Пегг, Кейт Эшфилд, Ник Фрост, Люси Дэвис, Дилан Моран, Билл Найи, Николя Каннингэм, Кейр Миллс, Мэтт Джейнс, Гэвин Фергюсон, Питер Серафинович, Тэмсин Грег и др.

Описание:
В жизни Шона все идет наперекосяк: ему 29 лет, он работает обычным продавцом-консультантом в эдаком «Эльдорадо» британского типа, дома постоянные бытовые разборки с сожителями, еще и подруга дает полный отворот-поворот. В общем, не жизнь, а сплошная мука. А тут еще, как назло, начинается какая-то странная эпидемия — ожившие и очень голодные трупы начинают бродить по туманному Альбиону в поисках свежей человечинки, по ходу дела заражая все больше и больше невинных граждан, превращая оных в таких же зомби. Вот тут-то и приходит конец терпению нашего героя! Вместе со своим закадычным другом Эдом, вооружившись дубинами и лопатами, верные друзья выходят на тропу войны, дабы посносить бошки надоедливым зомбякам, спасти своих близких и выжить самим.



Не нормативная лексика, присутствует строго по тексту оригинала, никакой отсебятины!

Качество видео: BDRip [Исх .Blu-Ray 1080p]
Формат видео: AVI
Видео кодек: XviD
Аудио кодек: AC3
Видео: 704x304 (2.32:1), 23.976 fps, XviD MPEG-4, 1634 kbps avg, 0.32 bit/pixel
Аудио: 48 kHz, AC3 Dolby Digital, 3/2 (L,C,R,l,r) + LFE ch, 448 kbps
Огромное спасибо за отличный перевод, а Mr_One_Two за его спонсирование, а так же спасибо за работу со звуком и панк-постер Perevodman`у.
General
Complete name : E:INTERNETShaun of the Dead.2004.BDRip.AVO.Kyberpunk.avi
Format : AVI
Format/Info : Audio Video Interleave
File size : 1.45 GiB
Duration : 1h 39mn
Overall bit rate : 2 092 Kbps
Writing application : VirtualDubMod 1.5.10.2 (build 2540/release)
Writing library : VirtualDubMod build 2540/release

Video
ID : 0
Format : MPEG-4 Visual
Format profile : Advanced Simple@L5
Format settings, BVOP : Yes
Format settings, QPel : No
Format settings, GMC : No warppoints
Format settings, Matrix : Default (MPEG)
Codec ID : XVID
Codec ID/Hint : XviD
Duration : 1h 39mn
Bit rate : 1 635 Kbps
Width : 704 pixels
Height : 304 pixels
Display aspect ratio : 2.35:1
Frame rate : 23.976 fps
Color space : YUV
Chroma subsampling : 4:2:0
Bit depth : 8 bits
Scan type : Progressive
Bits/(Pixel*Frame) : 0.319
Stream size : 1.14 GiB (78%)
Writing library : XviD 64

Audio
ID : 1
Format : AC-3
Format/Info : Audio Coding 3
Mode extension : CM (complete main)
Codec ID : 2000
Duration : 1h 39mn
Bit rate mode : Constant
Bit rate : 448 Kbps
Channel(s) : 6 channels
Channel positions : Front: L C R, Side: L R, LFE
Sampling rate : 48.0 KHz
Bit depth : 16 bits
Stream size : 319 MiB (21%)
Alignment : Split accross interleaves
Interleave, duration : 42 ms (1.00 video frame)
Interleave, preload duration : 500 ms
piratbit.org



Скачать Зомби по имени Шон через торрент http://i57.fastpic.ru/big/2013/1202/21/7fa42135ef84bd2d4ad0d4b462218f21.jpg Скачать фильм Зомби по имени Шон через торрент бесплантно в хорошем качестве Описание:В жизни Шона все идет наперекосяк: ему 29 лет, он работает обычным продавцом-консультантом в эдаком «Эльдорадо» британского а, ... 10 10 10
Info! Золотая раздача, скачанное не засчитывается.
Торрент: Зарегистрирован [2013-12-02 11:33] · скачан: 156 раз
Статус: √ проверено
Размер: 1.45 GB
Как cкачать? Как скачать Зомби по имени Шон через торрент | UTorrent

% Раздел Тема Автор DL S | L
Ultra HD (UHD: 2K, 4K, 8K) — видео сверхвысокой чёткости [ 55.24 GB ] Зомби по имени Шон / Shaun of the Dead [2004 UHD BDRemux 2160p] 2xMVO + 2xAVO bober100 Скачать
1 | 0
Ultra HD (UHD: 2K, 4K, 8K) — видео сверхвысокой чёткости [ 22.06 GB ] Зомби по имени Шон / Shaun of the Dead [2004 UHD BDRip 2160p] 2xMVO + 2xAVO sheker187 Скачать
1 | 0
Фильмы [HD 720p, 1080p] (Хороший звук DUB, MVO) [ 11.3 GB ] Зомби по имени Шон / Shaun of the Dead [2004 BDRip 1080p by msltel] 3 x MVO msltel Скачать
1 | 0
Фильмы [HD 720p, 1080p] (Хороший звук DUB, MVO) [ 4.42 GB ] Зомби по имени Шон / Shaun of the Dead [2004 BDRip 720p by msltel] 3 x MVO msltel Скачать
1 | 0
Фильмы [HD 720p, 1080p] (Хороший звук DUB, MVO) [ 12.63 GB ] Зомби по имени Шон / Shaun of the Dead [2004 BDRip 1080p] fallen_poet Скачать
1 | 0
Фильмы 2001-2005 [ 1.46 GB ] Зомби по имени Шон / Shaun of the Dead [2004 HDRip] Andruuha Скачать
1 | 0

28-11-2019 20:33  

Отключить всю рекламу на сайте

    Дорогой пользователь! Огромная просьба, поблагодарите релизера, оцените раздачу и оставьте свои комментарий, если Вы скачали Зомби по имени Шон через торрент бесплатно! Внесите свою лепту в развитие PiratBit!
    Комментировать посты могут только пользователи прошедшие не сложную регистрацию
    Показать сообщения:    

    Зомби по имени Шон через торрент
    Скачать бесплатно Зомби по имени Шон
    Зомби по имени Шон скачать торрент
    Зомби по имени Шон смотреть онлайн
    Cкачать фильм Зомби по имени Шон бесплатно
    Зомби по имени Шон скачать торрент в хорошем качестве
    Зомби по имени Шон смотреть онлайн бесплатно в хорошем качестве


    Вы не можете начинать темы
    Вы не можете отвечать на сообщения
    Вы не можете редактировать свои сообщения
    Вы не можете удалять свои сообщения
    Вы не можете голосовать в опросах
    Вы не можете прикреплять файлы к сообщениям
    Вы можете скачивать файлы