Достать ножи: Стеклянная луковица

MVO

Добыча

Дубляж

Уэнсдэй

1 сезон

Тор

Дубляж

13 клиническая

1 сезон

Жестокая ночь

MVO

Одни из нас

1 сезон

Deluxe

pack

Рекомендуем

30

Пиратка

ВАЖНО

ВАЖНО

Ghostwire

Пиратка

jed

RePack

nioh2

RePack

RDR2

RePack

NEED FOR SPEED™ PAYBACK

RePack

скачать торрент

Кинопоиск HD

Острые козырьки 6 сезон

6 сезон

FAR CRY 6

RePack

скачать торрент

Лицензия

скачать торрент

MVO

1

1 сезон

скачать торрент

1 сезон

скачать торрент

Лицензия

  

Страсти Дон Жуана / Don Jon (Джозеф Гордон-Левитт / Joseph Gordon-Levitt) [2013, Комедия, мелодрама, BDRemux, Дубляж] [Лицензия]

Страсти Дон Жуана через торрент piratbit.org

Размер: 19.42 GB | Добавлен: 9 лет 1 мес. назад | Торрент скачан:99 раз
Смотреть онлайн | Скачать | Поддержите нас   

03-12-2013 22:55 Страсти Дон Жуана Скачать торрент  

Страсти Дон Жуана / Don Jon

Год выпуска : 2013
Страна: США
Жанр: Комедия, мелодрама

Продолжительность: 01:26:13
Перевод: Дубляж [Лицензия]
Субтитры: Нет
Режиссер: Джозеф Гордон-Левитт / Joseph Gordon-Levitt
В ролях: Джозеф Гордон-Левитт (Jon), Скарлетт Йоханссон (Barbara), Джулианна Мур (Esther), Тони Данца (Jon Sr.), Гленн Хедли (Angela), Бри Ларсон (Monica), Роб Браун (Bobby), Джереми Люк (Danny), Пол Бен-Виктор (Priest), Италиа Риччи (Gina), Линдси Броад (Lauren), Аманда Перез (Lisa)
Описание: Комичная история современного ловеласа, который из каждого любовного приключения вынужден спасаться бегством. Он еще не знает, что недалек тот час, когда ему все-таки придется остепениться...
Рейтинг

imdb.com: 7.20 (21 215)
MPAA: R - Лицам до 17 лет обязательно присутствие взрослого
Качество: BDRemux
Формат: MKV
Видео кодек: AVC
Аудио кодек: AC3/DTS
Видео: AVC, 1920x1080 (16:9), 29408 kbps, 25 fps, 0,567 bpp
Аудио №1: русский / DTS-HD / 5.1 / 48 kHz / 1560 kbps / 16 bit (Core: 5.1 / 48 kHz / 1510 kbps / 16 bit) ||
Аудио №2: русский / AC3 / 5.1 / 48 kHz / 640 kbps / 16 bit
General
Unique ID : 187099181927593148992290453662712010973 (0x8CC1FDE0581CDDC0BD1CFFC9DEA918DD)
Complete name : H:Don.Jon.2013.BDRemux.1080i.mkv
Format : Matroska
Format version : Version 2
File size : 19.4 GiB
Duration : 1h 26mn
Overall bit rate mode : Variable
Overall bit rate : 32.3 Mbps
Encoded date : UTC 2013-12-03 20:16:25
Writing application : mkvmerge v6.3.0 ('You can't stop me!') built on Jun 28 2013 20:09:41
Writing library : libebml v1.3.0 + libmatroska v1.4.0

Video
ID : 1
Format : AVC
Format/Info : Advanced Video Codec
Format profile : High@L4.1
Format settings, CABAC : Yes
Format settings, ReFrames : 4 frames
Codec ID : V_MPEG4/ISO/AVC
Duration : 1h 26mn
Bit rate mode : Constant
Bit rate : 29.4 Mbps
Nominal bit rate : 32.0 Mbps
Width : 1 920 pixels
Height : 1 080 pixels
Display aspect ratio : 16:9
Frame rate : 25.000 fps
Standard : PAL
Color space : YUV
Chroma subsampling : 4:2:0
Bit depth : 8 bits
Scan type : MBAFF
Bits/(Pixel*Frame) : 0.567
Stream size : 17.7 GiB (91%)
Default : Yes
Forced : No
Color primaries : BT.709-5, BT.1361, IEC 61966-2-4, SMPTE RP177
Transfer characteristics : BT.709-5, BT.1361
Matrix coefficients : BT.709-5, BT.1361, IEC 61966-2-4 709, SMPTE RP177

Audio #1
ID : 2
Format : DTS
Format/Info : Digital Theater Systems
Format profile : MA / Core
Codec ID : A_DTS
Duration : 1h 26mn
Bit rate mode : Variable
Bit rate : 1 561 Kbps / 1 510 Kbps
Channel(s) : 6 channels
Channel positions : Front: L C R, Side: L R, LFE
Sampling rate : 48.0 KHz
Bit depth : 16 bits
Compression mode : Lossless / Lossy
Language : Russian
Default : Yes
Forced : No

Audio #2
ID : 3
Format : AC-3
Format/Info : Audio Coding 3
Mode extension : CM (complete main)
Codec ID : A_AC3
Duration : 1h 26mn
Bit rate mode : Constant
Bit rate : 640 Kbps
Channel(s) : 6 channels
Channel positions : Front: L C R, Side: L R, LFE
Sampling rate : 48.0 KHz
Bit depth : 16 bits
Compression mode : Lossy
Stream size : 395 MiB (2%)
Language : Russian
Default : No
Forced : No

Menu
00:00:00.000 : en:00:00:00.000
00:07:03.320 : en:00:07:03.320
00:14:54.640 : en:00:14:54.640
00:21:06.720 : en:00:21:06.720
00:28:36.080 : en:00:28:36.080
00:35:33.080 : en:00:35:33.080
00:42:06.680 : en:00:42:06.680
00:51:46.320 : en:00:51:46.320
00:58:00.480 : en:00:58:00.480
01:03:02.200 : en:01:03:02.200
01:11:04.280 : en:01:11:04.280
01:17:57.760 : en:01:17:57.760



Скачать Страсти Дон Жуана через торрент http://i6-imageban-ru.translate.goog/out/2013/12/04/60ce4d08bc25cdace6f6468720900ad2.png Скачать, смотреть онлайн Страсти Дон Жуана бесплантно в хорошем качестве Описание: Комичная история современного ловеласа, который из каждого любовного приключения вынужден спасаться бегством. Он еще не знает, ... 9.6 10 8
Info! Золотая раздача, скачанное не засчитывается.
Торрент: Зарегистрирован [2013-12-03 22:55] · скачан: 99 раз
Статус: √ проверено
Размер: 19.42 GB
Как cкачать? Как скачать Страсти Дон Жуана через торрент | UTorrent

% Раздел Тема Автор DL S | L
Фильмы 2013 [DVDrip, WEB-DLRip, HDrip] [ 1.47 GB ] Страсти Дон Жуана / Don Jon | Лицензия | BDRip-AVC, Дубляж, Лицензия potroks Скачать
1 | 0
Фильмы 2013 [DVDrip, WEB-DLRip, HDrip] [ 1.37 GB ] Страсти Дон Жуана / Don Jon | | 2013 г., комедия, мелодрама, НDRip diletant Скачать
1 | 0
Фильмы [HD 720p, 1080p] (Хороший звук DUB, MVO) [ 8.1 GB ] Страсти Дон Жуана / Don Jon | Лицензия | 1080p, DUB лисяра Скачать
1 | 0
Фильмы (DVD фильмы) [ 4.35 GB ] Страсти Дон Жуана / Don Jon | | 2013, комедия, мелодрама, DVD5 voovaz Скачать
1 | 0

28-11-2019 20:33  


Отключить вcю реклaмy на сайте, в т.ч. и в плеере онлайн просмотра!

    Дорогой пользователь! Огромная просьба, поблагодарите релизера, оцените раздачу и оставьте свои комментарий, если Вы скачали Страсти Дон Жуана через торрент бесплатно!!
    Комментировать посты могут только пользователи прошедшие не сложную регистрацию
    Показать сообщения:    


    Страсти Дон Жуана через торрент
    Скачать бесплатно Страсти Дон Жуана
    Страсти Дон Жуана скачать торрент
    Страсти Дон Жуана смотреть онлайн
    Cкачать фильм Страсти Дон Жуана бесплатно
    Страсти Дон Жуана скачать торрент в хорошем качестве
    Страсти Дон Жуана смотреть онлайн бесплатно в хорошем качестве
    Вы не можете начинать темы
    Вы не можете отвечать на сообщения
    Вы не можете редактировать свои сообщения
    Вы не можете удалять свои сообщения
    Вы не можете голосовать в опросах
    Вы не можете прикреплять файлы к сообщениям
    Вы можете скачивать файлы
    Страсти Дон Жуана / Don Jon [2013, Комедия, мелодрама, BDRemux, Дубляж] [Лицензия] смотреть онлайн, скачать торрент picoco.icu