Ссылка на приватное зеркало нашего сайта всего за 1$. Внимание количество ограничено!!!

2 сезон

iTunes

iTunes

1

iTunes

iTunes

iTunes

WEBRip

iTunes

30
pack

Вам бонус

ВАЖНО

!!Акция!!

Alien_RageХит недели

RePack

Horizon Zero Dawn

ИГРА 18+

pack

RePack

jed

!!Акция!!

Alien_Rage

RePack

fifa19

RePack

Assassins Creed: Odyssey

RePack

NEED FOR SPEED™ PAYBACK

4 сезон

9 сезон

Бесстыжие 9 сезон

Все сериалы

все сериалы на PB.wtf

RePack

FAR CRY 5
  

Желание мести / Straightheads (Дэн Рид / Dan Reed) [2007, Великобритания, триллер, драма, DVDRip]L2 piratbit.org

Желание мести через торрент piratbit.org

Размер: 1.37 GB | Добавлен: 6 лет 9 мес. назад | Торрент скачан:91 раз
Скачать  

10-12-2013 05:36 Желание мести Скачать торрент  

Желание мести / Straightheads
Год выпуска: 2007
Страна: Великобритания
Жанр: триллер, драма
Продолжительность: 01:15:17
Перевод: Любительский (двухголосый)
Субтитры: Нет

Режиссер: Дэн Рид / Dan Reed
Сценарий: Дэн Рид / Dan Reed
Продюсер: Дэмиэн Джонс / Damian Jones, Кевин Лоудер / Kevin Loader, Питер Карлтон / Peter Carlton, Александр О’Нил / Alexander O'Neal, Ли Томас / Lee Thomas
Оператор: Крис Сигер / Chris Seager
Композитор: Илан Эшкери / Ilan Eshkeri

В ролях: Дэнни Дайер (Adam), Джиллиан Андерсон (Alice), Адам Рэйнер (Jago), Энтони Бирн (Misha), Энтони Калф (Heffer), Ральф Браун (Jamie), Стивен Робертсон (Bill), Гугу Мбата-Роу (Young PA), Нил Финниган (Man On Horse), Франческа Фаулер (Sophie), Kate Bunten (Young Alice, в титрах не указана), Ивэн Стюарт (в титрах не указан)

Мировая премьера: 27 апреля 2007

Описание: Волевая бизнесвумен соблазняет 23-х летнего паренька, который ставит в ее доме систему видеонаблюдения. Она берет его с собой на светскую вечеринку, где они сливаются в безудержной страстной прелюдии. По дороге с вечеринки домой они сбивают оленя на лесной дороге. В то время пока пара решает, что делать с оленем, на них нападают три агрессивных накокаиненых мужчины. Они зверски избивают парня и не менее зверски насилуют женщину...
Через месяц оправившаяся от травм женщина случайно встречает одного из преступников и ее одолевает желание мести. Пара выслеживает преступника повсюду, чтобы кровожадно разделаться с ним. Этот процесс начинает доставлять им удовольствие.

Рейтинг
kinopoisk.ru: 6.062 (663)
imdb.com: 5.60 (4658)
MPAA: R - Лицам до 17 лет обязательно присутствие взрослого

Качество: DVDRip
Формат: AVI
Видео кодек: XviD
Аудио кодек: AC3
Видео: 2211 Кбит/сек, 720*416 (1,731), в 25,000 кадров/сек, MPEG-4 Visual (XviD)
Аудио: русский, 384 Кбит/сек, 48,0 КГц, 16 бит, 6 каналов, AC-3

Общее
Кол-во : 279
Кол-во потоков такого типа : 1
Тип потока : General
Тип потока : Общее
Идентификатор типа потока : 0
Inform : AVI: 1,37 Гбайт, 1 ч. 15 м.
Кол-во видеопотоков : 1
Кол-во аудиопотоков : 1
Video_Format_List : MPEG-4 Visual
Video_Format_WithHint_List : MPEG-4 Visual (XviD)
Видеокодеки : XviD
Audio_Format_List : AC-3
Audio_Format_WithHint_List : AC-3
Аудиокодеки : AC3
Audio_Language_List : Russian
Полное имя : D:ФильмыМесть.avi
Имя папки : D:Фильмы
Имя файла : Месть
Расширение : avi
Формат : AVI
Формат : AVI
Формат/Информация : Audio Video Interleave
Формат/Используется в : avi
Коммерческое название : AVI
Интернет-тип носителя : video/vnd.avi
Чередующаяся : Yes
Кодек : AVI
Кодек : AVI
Кодек/Информация : Audio Video Interleave
Кодек/Используется в : avi
Размер файла : 1469356032
Размер файла : 1,37 Гбайт
Размер файла : 1 Гбайт
Размер файла : 1,4 Гбайт
Размер файла : 1,37 Гбайт
Размер файла : 1,368 Гбайт
Продолжительность : 4517240
Продолжительность : 1 ч. 15 м.
Продолжительность : 1 ч. 15 м. 17 с. 240 мс.
Продолжительность : 1 ч. 15 м.
Продолжительность : 01:15:17.240
Общий поток : 2602219
Общий поток : 2602 Кбит/сек
Размер потока : 3907440
Размер потока : 3,73 Мбайт (0%)
Размер потока : 4 Мбайт
Размер потока : 3,7 Мбайт
Размер потока : 3,73 Мбайт
Размер потока : 3,726 Мбайт
Размер потока : 3,73 Мбайт (0%)
Пропорции потока : 0.00266
Дата файла : UTC 2013-12-09 10:05:21.138
Дата файла (местная) : 2013-12-09 17:05:21.138
Дата изменения файла : UTC 2013-12-09 11:51:53.740
Дата изменения файла (местная) : 2013-12-09 18:51:53.740
Программа кодирования : VirtualDubMod 1.5.4.1 (build 2178/release)
Библиотека кодирования : VirtualDubMod build 2178/release
Библиотека кодирования : VirtualDubMod build 2178/release

Видео
Кол-во : 248
Кол-во потоков такого типа : 1
Тип потока : Video
Тип потока : Видео
Идентификатор типа потока : 0
Inform : 2211 Кбит/сек, 720*416 (1,731), в 25,000 кадров/сек, MPEG-4 Visual (XviD) (Advanced Simple@L5) (Custom Matrix)
Идентификатор : 0
Идентификатор : 0
Формат : MPEG-4 Visual
Коммерческое название : MPEG-4 Visual
Профиль формата : Advanced Simple@L5
Настройки формата : Custom Matrix
Параметр BVOP формата : No
Параметр BVOP формата : Нет
Параметр QPel формата : No
Параметр QPel формата : Нет
Параметр GMC формата : 0
Параметр GMC формата : Без точки перехода
Параметр матрицы формата : Custom
Параметр матрицы формата : Выборочная
Format_Settings_Matrix_Data : 0809090A0B0A0B0C0C0B0C0D0E0D0C0E0F10100F0E101011121110101212131414131212141516171615141618191918161A1C1D1C1A1E22221E262E26343448 / 1010101111111111111112121312121313141413131514151615141517161718181716171818191A1918181B1C1D1D1C1B202428242028303028343C3440406A
Интернет-тип носителя : video/MP4V-ES
Идентификатор кодека : XVID
Идентификатор кодека/Подсказка : XviD
Идентификатор кодека/Ссылка : http://mediaarea.net/XVID
Кодек : XVID
Кодек : XviD
Кодек/Семейство : MPEG-4V
Кодек/Информация : XviD project
Кодек/Ссылка : http://www.xvid.org/Downloads.15.0.html
Кодек/CC : XVID
Профиль кодека : Advanced Simple@L5
Настройки кодека : Custom Matrix
Параметр пакетного потока данных кодека : No
Параметр BVOP кодека : No
Параметр QPel кодека : No
Параметр GMC кодека : 0
Параметр GMC кодека : Без точки перехода
Параметр матрицы кодека : Custom
Продолжительность : 4517240
Продолжительность : 1 ч. 15 м.
Продолжительность : 1 ч. 15 м. 17 с. 240 мс.
Продолжительность : 1 ч. 15 м.
Продолжительность : 01:15:17.240
Битрейт : 2211299
Битрейт : 2211 Кбит/сек
Ширина : 720
Ширина : 720 пикселей
Высота : 416
Высота : 416 пикселей
Пропорции пикселя : 1.000
Соотношение сторон : 1.731
Соотношение сторон : 1,731
Частота кадров : 25.000
Частота кадров : 25,000 кадров/сек
Счётчик кадров : 112931
Разрешение : 8
Разрешение : 8 бит
Колориметрия : 4:2:0
Цветовое пространство : YUV
Субдискретизация насыщенности : 4:2:0
Битовая глубина : 8
Битовая глубина : 8 бит
Тип развёртки : Progressive
Тип развёртки : Прогрессивная
Переплетение : PPF
Переплетение : Прогрессивная
Метод сжатия : Lossy
Метод сжатия : С потерями
Бит/(Пиксели*Кадры) : 0.295
Задержка : 0
Задержка : 00:00:00.000
Размер потока : 1248621072
Размер потока : 1,16 Гбайт (85%)
Размер потока : 1 Гбайт
Размер потока : 1,2 Гбайт
Размер потока : 1,16 Гбайт
Размер потока : 1,163 Гбайт
Размер потока : 1,16 Гбайт (85%)
Пропорции потока : 0.84977
Библиотека кодирования : XviD0064
Библиотека кодирования : XviD 64
Библиотека кодирования/Имя : XviD
Библиотека кодирования/Version : 64

Аудио
Кол-во : 245
Кол-во потоков такого типа : 1
Тип потока : Audio
Тип потока : Аудио
Идентификатор типа потока : 0
Inform : Russian, 384 Кбит/сек, 48,0 КГц, 16 бит, 6 каналов, AC-3
Идентификатор : 1
Идентификатор : 1
Формат : AC-3
Формат/Информация : Audio Coding 3
Коммерческое название : AC-3
Расширение режима : CM (complete main)
Параметр Endianness формата : Big
Идентификатор кодека : 2000
Кодек : AC3
Кодек : AC3
Кодек/Семейство : AC3
Кодек/Информация : Dolby AC3
Кодек/CC : 2000
Продолжительность : 4517240
Продолжительность : 1 ч. 15 м.
Продолжительность : 1 ч. 15 м. 17 с. 240 мс.
Продолжительность : 1 ч. 15 м.
Продолжительность : 01:15:17.240
Вид битрейта : CBR
Вид битрейта : Постоянный
Битрейт : 384000
Битрейт : 384 Кбит/сек
Каналы : 6
Каналы : 6 каналов
Расположение каналов : Front: L C R, Side: L R, LFE
Расположение каналов : 3/2/0.1
Частота : 48000
Частота : 48,0 КГц
Количество образцов : 216827520
Разрешение : 16
Разрешение : 16 бит
Битовая глубина : 16
Битовая глубина : 16 бит
Метод сжатия : Lossy
Метод сжатия : С потерями
Задержка : 0
Задержка : 00:00:00.000
Задержка в оригинале : Stream
Задержка в оригинале : 'Сырой' поток
Задержка видео : 0
Задержка видео : 0
Размер потока : 216827520
Размер потока : 207 Мбайт (15%)
Размер потока : 207 Мбайт
Размер потока : 207 Мбайт
Размер потока : 207 Мбайт
Размер потока : 206,8 Мбайт
Размер потока : 207 Мбайт (15%)
Пропорции потока : 0.14757
Выравнивание : Split
Выравнивание : Разделение по промежуткам
Продолжительность промежутка : 2.40
Продолжительность промежутка : 96
Продолжительность промежутка : 96 мс. (2,40 видеокадра)
Время предзагрузки промежутка : 96
Время предзагрузки промежутка : 96 мс.
Язык : ru
Язык : Russian
Язык : Russian
Язык : ru
Язык : rus
Язык : ru
dialnorm : -27
dialnorm/String : -27 dB
compr : -0.28
compr/String : -0.28 dB
dynrng : -1.48
dynrng/String : -1.48 dB
bsid : 8
dialnorm_Average : -27
dialnorm_Average/String : -27 dB
dialnorm_Minimum : -27
dialnorm_Minimum/String : -27 dB
dialnorm_Maximum : -27
dialnorm_Maximum/String : -27 dB
dialnorm_Count : 899
compr_Average : 2.90
compr_Average/String : 2.90 dB
compr_Minimum : -13.52
compr_Minimum/String : -13.52 dB
compr_Maximum : 5.74
compr_Maximum/String : 5.74 dB
compr_Count : 899
dynrng_Average : -0.21
dynrng_Average/String : -0.21 dB
dynrng_Minimum : -1.48
dynrng_Minimum/String : -1.48 dB
dynrng_Maximum : 0.00
dynrng_Maximum/String : 0.00 dB
dynrng_Count : 899


скриншот  скриншот  скриншот  скриншот  скриншот  скриншот  скриншот  скриншот  



piratbit.org



Скачать Желание мести через торрент http://trueimages.ru/img/0f/47/c22a6a25.jpg Скачать фильм Желание мести через торрент бесплантно в хорошем качестве Описание: Волевая бизнесвумен соблазняет 23-х летнего паренька, который ставит в ее доме систему видеонаблюдения. Она берет его с собой на ... 10 10 6
Info! Золотая раздача, скачанное не засчитывается.
Торрент: Зарегистрирован [2013-12-10 05:36] · скачан: 91 раз
Статус: √ проверено
Размер: 1.37 GB
Как cкачать? Как скачать Желание мести через торрент | qTorrent

28-11-2019 20:33  

Отключить всю рекламу на сайте

10-12-2013 22:17 Желание мести Скачать торрент  

Не плохой фильм!piratbit.org



    Дорогой пользователь! Огромная просьба, поблагодарите релизера, оцените раздачу и оставьте свои комментарий, если Вы скачали Желание мести через торрент бесплатно! Внесите свою лепту в развитие PiratBit!
    Комментировать посты могут только пользователи прошедшие не сложную регистрацию
    Показать сообщения:    

    Желание мести через торрент
    Скачать бесплатно Желание мести
    Желание мести скачать торрент
    Желание мести смотреть онлайн
    Cкачать фильм Желание мести бесплатно
    Желание мести скачать торрент в хорошем качестве
    Желание мести смотреть онлайн бесплатно в хорошем качестве


    Вы не можете начинать темы
    Вы не можете отвечать на сообщения
    Вы не можете редактировать свои сообщения
    Вы не можете удалять свои сообщения
    Вы не можете голосовать в опросах
    Вы не можете прикреплять файлы к сообщениям
    Вы можете скачивать файлы