Доктор Стрэндж

Лицензия

Добыча

Дубляж

Дом дракона

1 сезон

Тор

Дубляж

В эфире

Дубляж

Там, где раки поют

MVO

Властелин колец

1 сезон

Ultimate

pack

Рекомендуем

30

Пиратка

ВАЖНО

ВАЖНО

Ghostwire

Пиратка

jed

RePack

nioh2

RePack

RDR2

RePack

NEED FOR SPEED™ PAYBACK

RePack

скачать торрент

Кинопоиск HD

Острые козырьки 6 сезон

6 сезон

FAR CRY 6

RePack

скачать торрент

Лицензия

скачать торрент

MVO

1

1 сезон

скачать торрент

1 сезон

скачать торрент

Лицензия

  

Убийственная мультипликация / Killer Toon (Ён-гён Ким / Yong-gyun Kim) [2013, Корея Южная, триллер, ужасы, BDRip 1080p, Любительский (двухголосый)[den904, DeadSno]

Убийственная мультипликация через торрент piratbit.org

Размер: 7.74 GB | Добавлен: 8 лет 10 мес. назад | Торрент скачан:41 раз
Смотреть онлайн | Скачать   

13-01-2014 20:46 Убийственная мультипликация Скачать торрент  

Убийственная мультипликация / Killer Toon


Год выпуска:2013
Страна:Корея Южная
Жанр:триллер, ужасы

Продолжительность: 01:44:06
Перевод:Любительский (двухголосый)[den904, DeadSno]
Субтитры: Нет
Режиссер::Ён-гён Ким / Yong-gyun Kim
В ролях:Ли Си Ён (Ji-Yoon), Ом Ки Чжун (Detective Lee Ki-Cheol), Ким Хён У (Yeong-soo), Хэ-хё Квон, Ох Кван Рок

  • Описание:
    Город накрывает серия загадочных убийств, пародирующих рисунки писательницы веб-комиксов Дзи Юн. Детективу Ли Ги Чхолю придётся окунуться в мир комиксов, чтобы остановить этого монстра.

    Качество:BDRip 1080p
    Формат:MKV
    Видео кодек: AVC
    Аудио кодек: AC3
    Видео: AVC, 1920x1034 (1.857), 10468 kbps, 23,976 fps, 0,220 bpp
    Аудио №1: русский / AC3 / 2.0 / 48 kHz / 192 kbps / 16 bit ||

Код:

Общее
Уникальный идентификатор                 : 198895476620467087028205766796759959887 (0x95A1E01BB2F05C18B014289845C2894F)
Полное имя                               : D:ТорентыKiller.Toon.2013.Blu.Ray.1080p._Piratbit.net.mkv
Формат                                   : Matroska
Версия формата                           : Version 4 / Version 2
Размер файла                             : 7,74 Гбайт
Продолжительность                        : 1 ч. 44 м.
Общий поток                              : 10,6 Мбит/сек
Название фильма                          : Release for Piratbit.net_R.G. HD-Films
Дата кодирования                         : UTC 2014-01-13 20:57:01
Программа кодирования                    : mkvmerge v6.4.1 ('Omega Point') built on Sep 16 2013 22:05:10
Библиотека кодирования                   : libebml v1.3.0 + libmatroska v1.4.1

Видео
Идентификатор                            : 1
Формат                                   : AVC
Формат/Информация                        : Advanced Video Codec
Профиль формата                          : High@L4.1
Параметр CABAC формата                   : Да
Параметр ReFrames формата                : 4 кадра
Идентификатор кодека                     : V_MPEG4/ISO/AVC
Продолжительность                        : 1 ч. 44 м.
Битрейт                                  : 10,5 Мбит/сек
Ширина                                   : 1920 пикселей
Высота                                   : 1034 пикселя
Соотношение сторон                       : 1,85:1
Режим частоты кадров                     : Постоянный
Частота кадров                           : 23,976 кадра/сек
Цветовое пространство                    : YUV
Субдискретизация насыщенности            : 4:2:0
Битовая глубина                          : 8 бит
Тип развёртки                            : Прогрессивная
Бит/(Пиксели*Кадры)                      : 0.220
Размер потока                            : 7,45 Гбайт (96%)
Заголовок                                : Release for Piratbit.net_R.G. HD-Films
Библиотека кодирования                   : x264 core 125 r2208 d9d2288
Настройки программы                      : cabac=1 / ref=4 / deblock=1:-3:-3 / analyse=0x3:0x113 / me=umh / subme=10 / psy=1 / psy_rd=1.00:0.05 / mixed_ref=1 / me_range=32 / chroma_me=1 / trellis=2 / 8x8dct=1 / cqm=0 / deadzone=21,11 / fast_pskip=0 / chroma_qp_offset=-2 / threads=12 / lookahead_threads=2 / sliced_threads=0 / nr=0 / decimate=1 / interlaced=0 / bluray_compat=0 / constrained_intra=0 / bframes=5 / b_pyramid=2 / b_adapt=2 / b_bias=0 / direct=3 / weightb=1 / open_gop=0 / weightp=2 / keyint=250 / keyint_min=23 / scenecut=40 / intra_refresh=0 / rc=2pass / mbtree=0 / bitrate=10468 / ratetol=1.0 / qcomp=0.70 / qpmin=0 / qpmax=69 / qpstep=4 / cplxblur=20.0 / qblur=0.5 / ip_ratio=1.40 / pb_ratio=1.30 / aq=2:1.00
Язык                                     : English
Default                                  : Да
Forced                                   : Нет

Аудио
Идентификатор                            : 2
Формат                                   : AC-3
Формат/Информация                        : Audio Coding 3
Расширение режима                        : CM (complete main)
Параметр Endianness формата              : Big
Идентификатор кодека                     : A_AC3
Продолжительность                        : 1 ч. 44 м.
Вид битрейта                             : Постоянный
Битрейт                                  : 192 Кбит/сек
Каналы                                   : 2 канала
Расположение каналов                     : Front: L R
Частота                                  : 48,0 КГц
Битовая глубина                          : 16 бит
Метод сжатия                             : С потерями
Размер потока                            : 143 Мбайт (2%)
Заголовок                                : DeadSno & den904
Язык                                     : Russian
Default                                  : Да
Forced                                   : Да


Скриншоты:

Релиз подготовлен специально для Piratbit.net. Синхронизация звука и видео by Vetal

Трейлеры к фильмам [2014]



Скачать Убийственная мультипликация через торрент http://i6-imageban-ru.translate.goog/out/2014/01/14/c35eead53e72d8b38601909d411474d7.jpg Скачать, смотреть онлайн Убийственная мультипликация бесплантно в хорошем качестве Описание:Город накрывает серия загадочных убийств, пародирующих рисунки писательницы веб-комиксов Дзи Юн. Детективу Ли Ги Чхолю придётся ... 8.9 10 8
Info! Золотая раздача, скачанное не засчитывается.
Торрент: Зарегистрирован [2014-01-13 21:22] · скачан: 41 раз
Статус: √ проверено
Размер: 7.74 GB
Как cкачать? Как скачать Убийственная мультипликация через торрент | UTorrent

% Раздел Тема Автор DL S | L
Азиатские фильмы [ 1.39 GB ] Убийственная мультипликация / Killer Toon | | DVDRip, Любительский (двухголосый Ворон Скачать
1 | 0

28-11-2019 20:33  


Отключить вcю реклaмy на сайте, в т.ч. и в плеере онлайн просмотра!

31-03-2014 19:15 Убийственная мультипликация Скачать торрент  

Кто-то еще раздает?



    Дорогой пользователь! Огромная просьба, поблагодарите релизера, оцените раздачу и оставьте свои комментарий, если Вы скачали Убийственная мультипликация через торрент бесплатно!!
    Комментировать посты могут только пользователи прошедшие не сложную регистрацию
    Показать сообщения:    


    Убийственная мультипликация через торрент
    Скачать бесплатно Убийственная мультипликация
    Убийственная мультипликация скачать торрент
    Убийственная мультипликация смотреть онлайн
    Cкачать фильм Убийственная мультипликация бесплатно
    Убийственная мультипликация скачать торрент в хорошем качестве
    Убийственная мультипликация смотреть онлайн бесплатно в хорошем качестве
    Вы не можете начинать темы
    Вы не можете отвечать на сообщения
    Вы не можете редактировать свои сообщения
    Вы не можете удалять свои сообщения
    Вы не можете голосовать в опросах
    Вы не можете прикреплять файлы к сообщениям
    Вы можете скачивать файлы
    Убийственная мультипликация / Killer Toon [2013, Корея Южная, триллер, ужасы, BDRip 1080p, Любительский [den904, DeadSno] смотреть онлайн, скачать торрент picoco.icu